  0
SECTION
  2
HEADER
  9
$ACADVER
  1
AC1014
  9
$ACADMAINTVER
 70
     9
  9
$DWGCODEPAGE
  3
ANSI_932
  9
$INSBASE
 10
0.0
 20
0.0
 30
0.0
  9
$EXTMIN
 10
35.81391274408384
 20
66.01894632650919
 30
-0.0015258207003583
  9
$EXTMAX
 10
615.4472385142039
 20
1201.283614319155
 30
0.0000000349246037
  9
$LIMMIN
 10
0.0
 20
0.0
  9
$LIMMAX
 10
744.4023055112966
 20
1258.469304650978
  9
$ORTHOMODE
 70
     0
  9
$REGENMODE
 70
     1
  9
$FILLMODE
 70
     1
  9
$QTEXTMODE
 70
     0
  9
$MIRRTEXT
 70
     1
  9
$DRAGMODE
 70
     2
  9
$LTSCALE
 40
1.0
  9
$OSMODE
 70
    36
  9
$ATTMODE
 70
     1
  9
$TEXTSIZE
 40
15.0
  9
$TRACEWID
 40
1.0
  9
$TEXTSTYLE
  7
STANDARD
  9
$CLAYER
  8
0
  9
$CELTYPE
  6
BYLAYER
  9
$CECOLOR
 62
   256
  9
$CELTSCALE
 40
1.0
  9
$DELOBJ
 70
     1
  9
$DISPSILH
 70
     0
  9
$DIMSCALE
 40
3.0
  9
$DIMASZ
 40
2.5
  9
$DIMEXO
 40
0.5
  9
$DIMDLI
 40
8.0
  9
$DIMRND
 40
0.0
  9
$DIMDLE
 40
0.0
  9
$DIMEXE
 40
1.25
  9
$DIMTP
 40
0.0
  9
$DIMTM
 40
0.0
  9
$DIMTXT
 40
2.5
  9
$DIMCEN
 40
-2.5
  9
$DIMTSZ
 40
0.0
  9
$DIMTOL
 70
     0
  9
$DIMLIM
 70
     0
  9
$DIMTIH
 70
     0
  9
$DIMTOH
 70
     0
  9
$DIMSE1
 70
     0
  9
$DIMSE2
 70
     0
  9
$DIMTAD
 70
     1
  9
$DIMZIN
 70
     8
  9
$DIMBLK
  1

  9
$DIMASO
 70
     1
  9
$DIMSHO
 70
     1
  9
$DIMPOST
  1

  9
$DIMAPOST
  1

  9
$DIMALT
 70
     0
  9
$DIMALTD
 70
     3
  9
$DIMALTF
 40
0.03937007874016
  9
$DIMLFAC
 40
1.0
  9
$DIMTOFL
 70
     1
  9
$DIMTVP
 40
0.0
  9
$DIMTIX
 70
     0
  9
$DIMSOXD
 70
     1
  9
$DIMSAH
 70
     0
  9
$DIMBLK1
  1

  9
$DIMBLK2
  1

  9
$DIMSTYLE
  2
MY_DIM1
  9
$DIMCLRD
 70
     0
  9
$DIMCLRE
 70
     0
  9
$DIMCLRT
 70
     0
  9
$DIMTFAC
 40
1.0
  9
$DIMGAP
 40
0.625
  9
$DIMJUST
 70
     0
  9
$DIMSD1
 70
     0
  9
$DIMSD2
 70
     0
  9
$DIMTOLJ
 70
     0
  9
$DIMTZIN
 70
     8
  9
$DIMALTZ
 70
     0
  9
$DIMALTTZ
 70
     0
  9
$DIMFIT
 70
     3
  9
$DIMUPT
 70
     0
  9
$DIMUNIT
 70
     2
  9
$DIMDEC
 70
     1
  9
$DIMTDEC
 70
     1
  9
$DIMALTU
 70
     2
  9
$DIMALTTD
 70
     3
  9
$DIMTXSTY
  7
STANDARD
  9
$DIMAUNIT
 70
     0
  9
$LUNITS
 70
     2
  9
$LUPREC
 70
     3
  9
$SKETCHINC
 40
1.0
  9
$FILLETRAD
 40
10.0
  9
$AUNITS
 70
     0
  9
$AUPREC
 70
     3
  9
$MENU
  1
.
  9
$ELEVATION
 40
0.0
  9
$PELEVATION
 40
0.0
  9
$THICKNESS
 40
0.0
  9
$LIMCHECK
 70
     0
  9
$BLIPMODE
 70
     0
  9
$CHAMFERA
 40
10.0
  9
$CHAMFERB
 40
10.0
  9
$CHAMFERC
 40
20.0
  9
$CHAMFERD
 40
0.0
  9
$SKPOLY
 70
     0
  9
$TDCREATE
 40
2451958.631762616
  9
$TDUPDATE
 40
2453771.862885740
  9
$TDINDWG
 40
0.2234038079
  9
$TDUSRTIMER
 40
0.2234038079
  9
$USRTIMER
 70
     1
  9
$ANGBASE
 50
0.0
  9
$ANGDIR
 70
     0
  9
$PDMODE
 70
     0
  9
$PDSIZE
 40
0.0
  9
$PLINEWID
 40
0.0
  9
$COORDS
 70
     1
  9
$SPLFRAME
 70
     0
  9
$SPLINETYPE
 70
     6
  9
$SPLINESEGS
 70
     8
  9
$ATTDIA
 70
     0
  9
$ATTREQ
 70
     1
  9
$HANDLING
 70
 22529
  9
$HANDSEED
  5
D33
  9
$SURFTAB1
 70
     6
  9
$SURFTAB2
 70
     6
  9
$SURFTYPE
 70
     6
  9
$SURFU
 70
     6
  9
$SURFV
 70
     6
  9
$UCSNAME
  2

  9
$UCSORG
 10
0.0
 20
0.0
 30
0.0
  9
$UCSXDIR
 10
1.0
 20
0.0
 30
0.0
  9
$UCSYDIR
 10
0.0
 20
1.0
 30
0.0
  9
$PUCSNAME
  2

  9
$PUCSORG
 10
0.0
 20
0.0
 30
0.0
  9
$PUCSXDIR
 10
1.0
 20
0.0
 30
0.0
  9
$PUCSYDIR
 10
0.0
 20
1.0
 30
0.0
  9
$USERI1
 70
     0
  9
$USERI2
 70
     0
  9
$USERI3
 70
     0
  9
$USERI4
 70
     0
  9
$USERI5
 70
     0
  9
$USERR1
 40
0.0
  9
$USERR2
 40
0.0
  9
$USERR3
 40
0.0
  9
$USERR4
 40
0.0
  9
$USERR5
 40
0.0
  9
$WORLDVIEW
 70
     1
  9
$SHADEDGE
 70
     3
  9
$SHADEDIF
 70
    70
  9
$TILEMODE
 70
     1
  9
$MAXACTVP
 70
    64
  9
$PINSBASE
 10
0.0
 20
0.0
 30
0.0
  9
$PLIMCHECK
 70
     0
  9
$PEXTMIN
 10
12.98232514792016
 20
23.56196671945963
 30
0.0
  9
$PEXTMAX
 10
1110.528729975054
 20
1610.472770168164
 30
0.0
  9
$PLIMMIN
 10
-23.49499893188476
 20
-23.49499130249023
  9
$PLIMMAX
 10
1164.208980560302
 20
1656.291629791259
  9
$UNITMODE
 70
     0
  9
$VISRETAIN
 70
     1
  9
$PLINEGEN
 70
     0
  9
$PSLTSCALE
 70
     1
  9
$TREEDEPTH
 70
  3020
  9
$PICKSTYLE
 70
     1
  9
$CMLSTYLE
  2
STANDARD
  9
$CMLJUST
 70
     0
  9
$CMLSCALE
 40
20.0
  9
$PROXYGRAPHICS
 70
     1
  9
$MEASUREMENT
 70
     1
  0
ENDSEC
  0
SECTION
  2
CLASSES
  0
CLASS
  1
ACDBDICTIONARYWDFLT
  2
AcDbDictionaryWithDefault
  3
AutoCAD 2000
 90
        0
280
     0
281
     0
  0
CLASS
  1
ACDBPLACEHOLDER
  2
AcDbPlaceHolder
  3
AutoCAD 2000
 90
        0
280
     0
281
     0
  0
CLASS
  1
LAYOUT
  2
AcDbLayout
  3
AutoCAD 2000
 90
        0
280
     0
281
     0
  0
CLASS
  1
DICTIONARYVAR
  2
AcDbDictionaryVar
  3
AutoCAD 2000
 90
        0
280
     0
281
     0
  0
CLASS
  1
LONG_TRANSACTION
  2
AcDbLongTransaction
  3
AutoCAD 2000
 90
        0
280
     0
281
     0
  0
CLASS
  1
LWPOLYLINE
  2
AcDbPolyline
  3
AutoCAD 2000
 90
        0
280
     0
281
     1
  0
CLASS
  1
HATCH
  2
AcDbHatch
  3
AutoCAD 2000
 90
        0
280
     0
281
     1
  0
CLASS
  1
XRECORD
  2
AcDbXrecord
  3
AutoCAD 2000
 90
        0
280
     0
281
     0
  0
ENDSEC
  0
SECTION
  2
TABLES
  0
TABLE
  2
VPORT
  5
8
330
0
100
AcDbSymbolTable
 70
    10
  0
VPORT
  5
CED
330
8
100
AcDbSymbolTableRecord
100
AcDbViewportTableRecord
  2
*ACTIVE
 70
     0
 10
0.0
 20
0.0
 11
1.0
 21
1.0
 12
372.2011527556484
 22
629.2346523254888
 13
0.0
 23
0.0
 14
1.0
 24
1.0
 15
10.0
 25
10.0
 16
0.0
 26
0.0
 36
1.0
 17
0.0
 27
0.0
 37
0.0
 40
1273.074364279422
 41
1.837209302325581
 42
50.0
 43
0.0
 44
0.0
 50
0.0
 51
0.0
 71
     0
 72
   100
 73
     1
 74
     3
 75
     0
 76
     0
 77
     0
 78
     0
  0
ENDTAB
  0
TABLE
  2
LTYPE
  5
5
330
0
100
AcDbSymbolTable
 70
     3
  0
LTYPE
  5
14
330
5
100
AcDbSymbolTableRecord
100
AcDbLinetypeTableRecord
  2
BYBLOCK
 70
     0
  3

 72
    65
 73
     0
 40
0.0
  0
LTYPE
  5
15
330
5
100
AcDbSymbolTableRecord
100
AcDbLinetypeTableRecord
  2
BYLAYER
 70
     0
  3

 72
    65
 73
     0
 40
0.0
  0
LTYPE
  5
16
330
5
100
AcDbSymbolTableRecord
100
AcDbLinetypeTableRecord
  2
CONTINUOUS
 70
     0
  3
Solid line
 72
    65
 73
     0
 40
0.0
  0
LTYPE
  5
47
330
5
100
AcDbSymbolTableRecord
100
AcDbLinetypeTableRecord
  2
HIDDEN
 70
     0
  3
Hidden __ __ __ __ __ __ __ __ __ __ __ __ __ _
 72
    65
 73
     2
 40
9.524999999999998
 49
6.349999999999999
 74
     0
 49
-3.174999999999999
 74
     0
  0
LTYPE
  5
48
330
5
100
AcDbSymbolTableRecord
100
AcDbLinetypeTableRecord
  2
CENTER
 70
     0
  3
Center ____ _ ____ _ ____ _ ____ _ ____ _ ____
 72
    65
 73
     4
 40
50.8
 49
31.75
 74
     0
 49
-6.349999999999999
 74
     0
 49
6.349999999999999
 74
     0
 49
-6.349999999999999
 74
     0
  0
ENDTAB
  0
TABLE
  2
LAYER
  5
2
330
0
100
AcDbSymbolTable
 70
    11
  0
LAYER
  5
10
330
2
100
AcDbSymbolTableRecord
100
AcDbLayerTableRecord
  2
0
 70
     0
 62
     7
  6
CONTINUOUS
  0
LAYER
  5
49
330
2
100
AcDbSymbolTableRecord
100
AcDbLayerTableRecord
  2
外形線
 70
     0
 62
     5
  6
CONTINUOUS
  0
LAYER
  5
4A
330
2
100
AcDbSymbolTableRecord
100
AcDbLayerTableRecord
  2
隠線
 70
     0
 62
     8
  6
HIDDEN
  0
LAYER
  5
4B
330
2
100
AcDbSymbolTableRecord
100
AcDbLayerTableRecord
  2
センタ_線
 70
     0
 62
     4
  6
CENTER
  0
LAYER
  5
4C
330
2
100
AcDbSymbolTableRecord
100
AcDbLayerTableRecord
  2
寸法線
 70
     0
 62
     1
  6
CONTINUOUS
  0
LAYER
  5
4D
330
2
100
AcDbSymbolTableRecord
100
AcDbLayerTableRecord
  2
補助線
 70
     0
 62
     2
  6
CONTINUOUS
  0
LAYER
  5
6B
330
2
100
AcDbSymbolTableRecord
100
AcDbLayerTableRecord
  2
太実線
 70
     0
 62
   202
  6
CONTINUOUS
  0
LAYER
  5
71
330
2
100
AcDbSymbolTableRecord
100
AcDbLayerTableRecord
  2
中実線
 70
     0
 62
     4
  6
CONTINUOUS
  0
LAYER
  5
26A
330
2
100
AcDbSymbolTableRecord
100
AcDbLayerTableRecord
  2
ASHADE
 70
     4
 62
     7
  6
CONTINUOUS
  0
LAYER
  5
4AD
330
2
100
AcDbSymbolTableRecord
100
AcDbLayerTableRecord
  2
外形細線
 70
     0
 62
     6
  6
CONTINUOUS
  0
LAYER
  5
4AE
330
2
100
AcDbSymbolTableRecord
100
AcDbLayerTableRecord
  2
DEFPOINTS
 70
     0
 62
     7
  6
CONTINUOUS
  0
ENDTAB
  0
TABLE
  2
STYLE
  5
3
330
0
100
AcDbSymbolTable
 70
     4
  0
STYLE
  5
11
330
3
100
AcDbSymbolTableRecord
100
AcDbTextStyleTableRecord
  2
STANDARD
 70
     0
 40
0.0
 41
1.0
 50
0.0
 71
     0
 42
15.0
  3
isocp.shx
  4
bigfont.shx
  0
STYLE
  5
46
330
3
100
AcDbSymbolTableRecord
100
AcDbTextStyleTableRecord
  2

 70
     1
 40
0.0
 41
1.0
 50
0.0
 71
     0
 42
2.5
  3
ltypeshp.shx
  4

  0
STYLE
  5
79
330
3
100
AcDbSymbolTableRecord
100
AcDbTextStyleTableRecord
  2
DEMENTION
 70
     0
 40
0.0
 41
1.0
 50
15.0
 71
     0
 42
2.5
  3
isocp.shx
  4
bigfont.shx
  0
STYLE
  5
266
330
3
100
AcDbSymbolTableRecord
100
AcDbTextStyleTableRecord
  2
ASHADE
 70
     0
 40
0.2
 41
1.0
 50
0.0
 71
     0
 42
2.5
  3
txt.shx
  4
bigfont.shx
  0
ENDTAB
  0
TABLE
  2
VIEW
  5
6
330
0
100
AcDbSymbolTable
 70
     0
  0
ENDTAB
  0
TABLE
  2
UCS
  5
7
330
0
100
AcDbSymbolTable
 70
     0
  0
ENDTAB
  0
TABLE
  2
APPID
  5
9
330
0
100
AcDbSymbolTable
 70
     6
  0
APPID
  5
12
330
9
100
AcDbSymbolTableRecord
100
AcDbRegAppTableRecord
  2
ACAD
 70
     0
  0
APPID
  5
268
330
9
100
AcDbSymbolTableRecord
100
AcDbRegAppTableRecord
  2
AVE_RENDER
 70
     0
  0
APPID
  5
269
330
9
100
AcDbSymbolTableRecord
100
AcDbRegAppTableRecord
  2
AVE_ENTITY_MATERIAL
 70
     0
  0
APPID
  5
276
330
9
100
AcDbSymbolTableRecord
100
AcDbRegAppTableRecord
  2
AVE_FINISH
 70
     0
  0
APPID
  5
277
330
9
100
AcDbSymbolTableRecord
100
AcDbRegAppTableRecord
  2
AVE_MATERIAL
 70
     0
  0
APPID
  5
278
330
9
100
AcDbSymbolTableRecord
100
AcDbRegAppTableRecord
  2
AVE_GLOBAL
 70
     0
  0
ENDTAB
  0
TABLE
  2
DIMSTYLE
  5
A
330
0
100
AcDbSymbolTable
 70
     5
  0
DIMSTYLE
105
27
102
{ACAD_REACTORS
330
6AD
330
B95
330
C09
330
C16
330
C23
330
C30
330
C3D
330
C4E
330
C5F
330
C6E
102
}
330
A
100
AcDbSymbolTableRecord
100
AcDbDimStyleTableRecord
  2
MY_DIM1
 70
     0
  3

  4

  5

  6

  7

 40
3.0
 41
2.5
 42
0.5
 43
8.0
 44
1.25
 45
0.0
 46
0.0
 47
0.0
 48
0.0
140
2.5
141
-2.5
142
0.0
143
0.03937007874016
144
1.0
145
0.0
146
1.0
147
0.625
 71
     0
 72
     0
 73
     0
 74
     0
 75
     0
 76
     0
 77
     1
 78
     8
170
     0
171
     3
172
     1
173
     0
174
     0
175
     1
176
     0
177
     0
178
     0
270
     2
271
     1
272
     1
273
     2
274
     3
340
11
275
     0
280
     0
281
     0
282
     0
283
     0
284
     8
285
     0
286
     0
287
     3
288
     0
  0
DIMSTYLE
105
285
102
{ACAD_REACTORS
330
6DA
102
}
330
A
100
AcDbSymbolTableRecord
100
AcDbDimStyleTableRecord
  2
MY_DIM1$4
 70
     0
  3

  4

  5

  6

  7

 40
3.0
 41
2.5
 42
0.5
 43
8.0
 44
1.25
 45
0.0
 46
0.0
 47
0.0
 48
0.0
140
2.5
141
-2.5
142
0.0
143
0.03937007874016
144
1.0
145
0.0
146
1.0
147
0.625
 71
     0
 72
     0
 73
     0
 74
     0
 75
     0
 76
     0
 77
     1
 78
     8
170
     0
171
     3
172
     1
173
     0
174
     0
175
     1
176
     0
177
     0
178
     0
270
     2
271
     1
272
     1
273
     2
274
     3
340
11
275
     0
280
     0
281
     0
282
     0
283
     0
284
     8
285
     0
286
     0
287
     0
288
     0
  0
DIMSTYLE
105
286
102
{ACAD_REACTORS
330
BBE
102
}
330
A
100
AcDbSymbolTableRecord
100
AcDbDimStyleTableRecord
  2
MY_DIM1$3
 70
     0
  3

  4

  5

  6

  7

 40
3.0
 41
2.5
 42
0.5
 43
8.0
 44
1.25
 45
0.0
 46
0.0
 47
0.0
 48
0.0
140
2.5
141
-2.5
142
0.0
143
0.03937007874016
144
1.0
145
0.0
146
1.0
147
0.625
 71
     0
 72
     0
 73
     0
 74
     0
 75
     0
 76
     0
 77
     1
 78
     8
170
     0
171
     3
172
     1
173
     0
174
     0
175
     1
176
     0
177
     0
178
     0
270
     2
271
     1
272
     1
273
     2
274
     3
340
11
275
     0
280
     0
281
     0
282
     0
283
     0
284
     8
285
     0
286
     0
287
     0
288
     0
  0
DIMSTYLE
105
4AF
102
{ACAD_REACTORS
330
4C9
330
4C3
330
4D6
330
4D7
330
4CF
330
4C0
330
4BF
330
4DE
330
4BE
330
4C1
330
4C2
330
4B9
330
4B2
330
4ED
330
4B1
102
}
330
A
100
AcDbSymbolTableRecord
100
AcDbDimStyleTableRecord
  2
ISO-25
 70
     0
  3

  4

  5

  6

  7

 40
1.0
 41
2.5
 42
0.625
 43
3.75
 44
1.25
 45
0.0
 46
0.0
 47
0.0
 48
0.0
140
2.5
141
2.5
142
0.0
143
0.03937007874016
144
1.0
145
0.0
146
1.0
147
0.625
 71
     0
 72
     0
 73
     0
 74
     0
 75
     0
 76
     0
 77
     1
 78
     8
170
     0
171
     3
172
     1
173
     0
174
     0
175
     0
176
     0
177
     0
178
     0
270
     2
271
     2
272
     2
273
     2
274
     3
340
11
275
     0
280
     0
281
     0
282
     0
283
     0
284
     8
285
     0
286
     0
287
     3
288
     0
  0
DIMSTYLE
105
7B3
330
A
100
AcDbSymbolTableRecord
100
AcDbDimStyleTableRecord
  2
STANDARD
 70
     0
  3

  4

  5

  6

  7

 40
1.0
 41
0.18
 42
0.0625
 43
0.38
 44
0.18
 45
0.0
 46
0.0
 47
0.0
 48
0.0
140
0.18
141
0.09
142
0.0
143
25.4
144
1.0
145
0.0
146
1.0
147
0.09
 71
     0
 72
     0
 73
     1
 74
     1
 75
     0
 76
     0
 77
     0
 78
     0
170
     0
171
     2
172
     0
173
     0
174
     0
175
     0
176
     0
177
     0
178
     0
270
     2
271
     4
272
     4
273
     2
274
     2
340
11
275
     0
280
     0
281
     0
282
     0
283
     1
284
     0
285
     0
286
     0
287
     3
288
     0
  0
ENDTAB
  0
TABLE
  2
BLOCK_RECORD
  5
1
330
0
100
AcDbSymbolTable
 70
    77
  0
BLOCK_RECORD
  5
1F
102
{ACAD_XDICTIONARY
360
D0E
102
}
330
1
100
AcDbSymbolTableRecord
100
AcDbBlockTableRecord
  2
*MODEL_SPACE
  0
BLOCK_RECORD
  5
526
102
{ACAD_XDICTIONARY
360
D10
102
}
330
1
100
AcDbSymbolTableRecord
100
AcDbBlockTableRecord
  2
*PAPER_SPACE
  0
BLOCK_RECORD
  5
98
330
1
100
AcDbSymbolTableRecord
100
AcDbBlockTableRecord
  2
A$C00D70D3F
  0
BLOCK_RECORD
  5
1AB
330
1
100
AcDbSymbolTableRecord
100
AcDbBlockTableRecord
  2
A$C42463F41
  0
BLOCK_RECORD
  5
26B
330
1
100
AcDbSymbolTableRecord
100
AcDbBlockTableRecord
  2
AVE_RENDER
  0
BLOCK_RECORD
  5
279
330
1
100
AcDbSymbolTableRecord
100
AcDbBlockTableRecord
  2
AVE_GLOBAL
  0
BLOCK_RECORD
  5
3F8
330
1
100
AcDbSymbolTableRecord
100
AcDbBlockTableRecord
  2
*D4
  0
BLOCK_RECORD
  5
404
330
1
100
AcDbSymbolTableRecord
100
AcDbBlockTableRecord
  2
*D5
  0
BLOCK_RECORD
  5
410
330
1
100
AcDbSymbolTableRecord
100
AcDbBlockTableRecord
  2
*D6
  0
BLOCK_RECORD
  5
41C
330
1
100
AcDbSymbolTableRecord
100
AcDbBlockTableRecord
  2
*D7
  0
BLOCK_RECORD
  5
428
330
1
100
AcDbSymbolTableRecord
100
AcDbBlockTableRecord
  2
*D8
  0
BLOCK_RECORD
  5
434
330
1
100
AcDbSymbolTableRecord
100
AcDbBlockTableRecord
  2
*D9
  0
BLOCK_RECORD
  5
440
330
1
100
AcDbSymbolTableRecord
100
AcDbBlockTableRecord
  2
*D10
  0
BLOCK_RECORD
  5
44C
330
1
100
AcDbSymbolTableRecord
100
AcDbBlockTableRecord
  2
*D11
  0
BLOCK_RECORD
  5
458
330
1
100
AcDbSymbolTableRecord
100
AcDbBlockTableRecord
  2
*D12
  0
BLOCK_RECORD
  5
464
330
1
100
AcDbSymbolTableRecord
100
AcDbBlockTableRecord
  2
*D13
  0
BLOCK_RECORD
  5
471
330
1
100
AcDbSymbolTableRecord
100
AcDbBlockTableRecord
  2
*D14
  0
BLOCK_RECORD
  5
47D
330
1
100
AcDbSymbolTableRecord
100
AcDbBlockTableRecord
  2
*D15
  0
BLOCK_RECORD
  5
489
330
1
100
AcDbSymbolTableRecord
100
AcDbBlockTableRecord
  2
*D16
  0
BLOCK_RECORD
  5
495
330
1
100
AcDbSymbolTableRecord
100
AcDbBlockTableRecord
  2
*D17
  0
BLOCK_RECORD
  5
4A1
330
1
100
AcDbSymbolTableRecord
100
AcDbBlockTableRecord
  2
*D18
  0
BLOCK_RECORD
  5
4B0
330
1
100
AcDbSymbolTableRecord
100
AcDbBlockTableRecord
  2
A$C318A2D0B
  0
BLOCK_RECORD
  5
55C
330
1
100
AcDbSymbolTableRecord
100
AcDbBlockTableRecord
  2
TAPF08N
  0
BLOCK_RECORD
  5
5A4
330
1
100
AcDbSymbolTableRecord
100
AcDbBlockTableRecord
  2
A$C1FDB40F3
  0
BLOCK_RECORD
  5
67B
330
1
100
AcDbSymbolTableRecord
100
AcDbBlockTableRecord
  2
*D22
  0
BLOCK_RECORD
  5
688
330
1
100
AcDbSymbolTableRecord
100
AcDbBlockTableRecord
  2
*D23
  0
BLOCK_RECORD
  5
69F
330
1
100
AcDbSymbolTableRecord
100
AcDbBlockTableRecord
  2
*D24
  0
BLOCK_RECORD
  5
6AE
330
1
100
AcDbSymbolTableRecord
100
AcDbBlockTableRecord
  2
*D25
  0
BLOCK_RECORD
  5
6BB
330
1
100
AcDbSymbolTableRecord
100
AcDbBlockTableRecord
  2
*D26
  0
BLOCK_RECORD
  5
6D2
330
1
100
AcDbSymbolTableRecord
100
AcDbBlockTableRecord
  2
*D27
  0
BLOCK_RECORD
  5
6DB
330
1
100
AcDbSymbolTableRecord
100
AcDbBlockTableRecord
  2
*D28
  0
BLOCK_RECORD
  5
6E8
330
1
100
AcDbSymbolTableRecord
100
AcDbBlockTableRecord
  2
*D29
  0
BLOCK_RECORD
  5
6F3
330
1
100
AcDbSymbolTableRecord
100
AcDbBlockTableRecord
  2
*D30
  0
BLOCK_RECORD
  5
706
330
1
100
AcDbSymbolTableRecord
100
AcDbBlockTableRecord
  2
*D31
  0
BLOCK_RECORD
  5
721
330
1
100
AcDbSymbolTableRecord
100
AcDbBlockTableRecord
  2
*D32
  0
BLOCK_RECORD
  5
72E
330
1
100
AcDbSymbolTableRecord
100
AcDbBlockTableRecord
  2
*D33
  0
BLOCK_RECORD
  5
73B
330
1
100
AcDbSymbolTableRecord
100
AcDbBlockTableRecord
  2
*D34
  0
BLOCK_RECORD
  5
758
330
1
100
AcDbSymbolTableRecord
100
AcDbBlockTableRecord
  2
CRFN04
  0
BLOCK_RECORD
  5
764
330
1
100
AcDbSymbolTableRecord
100
AcDbBlockTableRecord
  2
CRSM0400
  0
BLOCK_RECORD
  5
8EC
330
1
100
AcDbSymbolTableRecord
100
AcDbBlockTableRecord
  2
TAPF03
  0
BLOCK_RECORD
  5
8F3
330
1
100
AcDbSymbolTableRecord
100
AcDbBlockTableRecord
  2
TAPF04N
  0
BLOCK_RECORD
  5
94A
330
1
100
AcDbSymbolTableRecord
100
AcDbBlockTableRecord
  2
HB08H
  0
BLOCK_RECORD
  5
96F
330
1
100
AcDbSymbolTableRecord
100
AcDbBlockTableRecord
  2
*D45
  0
BLOCK_RECORD
  5
97B
330
1
100
AcDbSymbolTableRecord
100
AcDbBlockTableRecord
  2
*D46
  0
BLOCK_RECORD
  5
987
330
1
100
AcDbSymbolTableRecord
100
AcDbBlockTableRecord
  2
*D47
  0
BLOCK_RECORD
  5
993
330
1
100
AcDbSymbolTableRecord
100
AcDbBlockTableRecord
  2
*D48
  0
BLOCK_RECORD
  5
99B
330
1
100
AcDbSymbolTableRecord
100
AcDbBlockTableRecord
  2
*D49
  0
BLOCK_RECORD
  5
9A3
330
1
100
AcDbSymbolTableRecord
100
AcDbBlockTableRecord
  2
*D50
  0
BLOCK_RECORD
  5
9F5
330
1
100
AcDbSymbolTableRecord
100
AcDbBlockTableRecord
  2
*D52
  0
BLOCK_RECORD
  5
9FD
330
1
100
AcDbSymbolTableRecord
100
AcDbBlockTableRecord
  2
*D53
  0
BLOCK_RECORD
  5
A09
330
1
100
AcDbSymbolTableRecord
100
AcDbBlockTableRecord
  2
*D54
  0
BLOCK_RECORD
  5
A15
330
1
100
AcDbSymbolTableRecord
100
AcDbBlockTableRecord
  2
*D55
  0
BLOCK_RECORD
  5
A21
330
1
100
AcDbSymbolTableRecord
100
AcDbBlockTableRecord
  2
*D56
  0
BLOCK_RECORD
  5
A29
330
1
100
AcDbSymbolTableRecord
100
AcDbBlockTableRecord
  2
*D57
  0
BLOCK_RECORD
  5
A7D
330
1
100
AcDbSymbolTableRecord
100
AcDbBlockTableRecord
  2
TAPF06N
  0
BLOCK_RECORD
  5
B2D
330
1
100
AcDbSymbolTableRecord
100
AcDbBlockTableRecord
  2
*D63
  0
BLOCK_RECORD
  5
B3A
330
1
100
AcDbSymbolTableRecord
100
AcDbBlockTableRecord
  2
N13S08
  0
BLOCK_RECORD
  5
B78
330
1
100
AcDbSymbolTableRecord
100
AcDbBlockTableRecord
  2
*D65
  0
BLOCK_RECORD
  5
B83
330
1
100
AcDbSymbolTableRecord
100
AcDbBlockTableRecord
  2
*D66
  0
BLOCK_RECORD
  5
B96
330
1
100
AcDbSymbolTableRecord
100
AcDbBlockTableRecord
  2
*D67
  0
BLOCK_RECORD
  5
BBF
330
1
100
AcDbSymbolTableRecord
100
AcDbBlockTableRecord
  2
*D68
  0
BLOCK_RECORD
  5
C0A
330
1
100
AcDbSymbolTableRecord
100
AcDbBlockTableRecord
  2
*D69
  0
BLOCK_RECORD
  5
C17
330
1
100
AcDbSymbolTableRecord
100
AcDbBlockTableRecord
  2
*D70
  0
BLOCK_RECORD
  5
C24
330
1
100
AcDbSymbolTableRecord
100
AcDbBlockTableRecord
  2
*D71
  0
BLOCK_RECORD
  5
C31
330
1
100
AcDbSymbolTableRecord
100
AcDbBlockTableRecord
  2
*D72
  0
BLOCK_RECORD
  5
C3E
330
1
100
AcDbSymbolTableRecord
100
AcDbBlockTableRecord
  2
*D73
  0
BLOCK_RECORD
  5
C4F
330
1
100
AcDbSymbolTableRecord
100
AcDbBlockTableRecord
  2
*D74
  0
BLOCK_RECORD
  5
C60
330
1
100
AcDbSymbolTableRecord
100
AcDbBlockTableRecord
  2
*D75
  0
BLOCK_RECORD
  5
C6F
330
1
100
AcDbSymbolTableRecord
100
AcDbBlockTableRecord
  2
*D76
  0
ENDTAB
  0
ENDSEC
  0
SECTION
  2
BLOCKS
  0
BLOCK
  5
20
330
1F
100
AcDbEntity
  8
0
100
AcDbBlockBegin
  2
*MODEL_SPACE
 70
     0
 10
0.0
 20
0.0
 30
0.0
  3
*MODEL_SPACE
  1

  0
ENDBLK
  5
21
330
1F
100
AcDbEntity
  8
0
100
AcDbBlockEnd
  0
BLOCK
  5
528
330
526
100
AcDbEntity
 67
     1
  8
0
100
AcDbBlockBegin
  2
*PAPER_SPACE
 70
     0
 10
0.0
 20
0.0
 30
0.0
  3
*PAPER_SPACE
  1

  0
ENDBLK
  5
529
330
526
100
AcDbEntity
 67
     1
  8
0
100
AcDbBlockEnd
  0
BLOCK
  5
9A
330
98
100
AcDbEntity
  8
0
100
AcDbBlockBegin
  2
A$C00D70D3F
 70
     0
 10
0.0
 20
0.0
 30
0.0
  3
A$C00D70D3F
  1

  0
MTEXT
  5
99
330
98
100
AcDbEntity
  8
太実線
100
AcDbMText
 10
-0.0000008137901659
 20
2.500000122029746
 30
0.0
 40
2.5
 41
61.0
 71
     1
 72
     5
  1
京都自動機器株式会社
1001
ACAD
1000
MTEXTBEGIN
1070
    73
1070
     1
1070
    44
1040
1.0
1070
    74
1070
     0
1000
MTEXTEND
  0
ENDBLK
  5
9B
330
98
100
AcDbEntity
  8
0
100
AcDbBlockEnd
  0
BLOCK
  5
1BD
330
1AB
100
AcDbEntity
  8
0
100
AcDbBlockBegin
  2
A$C42463F41
 70
     0
 10
0.0
 20
0.0
 30
0.0
  3
A$C42463F41
  1

  0
LINE
  5
1AC
330
1AB
100
AcDbEntity
  8
太実線
100
AcDbLine
 10
-0.0000004967369023
 20
40.00000022370682
 30
0.0
 11
119.999999503263
 21
40.00000022370682
 31
0.0
  0
LINE
  5
1AD
330
1AB
100
AcDbEntity
  8
太実線
100
AcDbLine
 10
119.999999503263
 20
30.00000022370682
 30
0.0
 11
-0.0000004967369023
 21
30.00000022370682
 31
0.0
  0
LINE
  5
1AE
330
1AB
100
AcDbEntity
  8
太実線
100
AcDbLine
 10
-0.0000004967369023
 20
20.00000022370682
 30
0.0
 11
119.999999503263
 21
20.00000022370682
 31
0.0
  0
LINE
  5
1AF
330
1AB
100
AcDbEntity
  8
太実線
100
AcDbLine
 10
-0.0000004967369023
 20
10.00000022370681
 30
0.0
 11
119.999999503263
 21
10.00000022370681
 31
0.0
  0
LINE
  5
1B0
330
1AB
100
AcDbEntity
  8
太実線
100
AcDbLine
 10
-0.0000004967369023
 20
0.0000002237068202
 30
0.0
 11
119.999999503263
 21
0.0000002237068202
 31
0.0
  0
LINE
  5
1B1
330
1AB
100
AcDbEntity
  8
太実線
100
AcDbLine
 10
-0.0000004967369023
 20
40.00000022370682
 30
0.0
 11
-0.0000004967369023
 21
0.0000002237068202
 31
0.0
  0
MTEXT
  5
1B2
330
1AB
100
AcDbEntity
  8
太実線
100
AcDbMText
 10
-0.0000004967369023
 20
20.00000022370682
 30
0.0
 40
2.5
 41
9.0
 71
     1
 72
     5
  1
担当
1001
ACAD
1000
MTEXTBEGIN
1070
    73
1070
     1
1070
    44
1040
1.0
1070
    74
1070
     0
1000
MTEXTEND
  0
MTEXT
  5
1B3
330
1AB
100
AcDbEntity
  8
太実線
100
AcDbMText
 10
29.99999950326309
 20
20.00000022370682
 30
0.0
 40
2.5
 41
10.0
 71
     1
 72
     5
  1
製図
1001
ACAD
1000
MTEXTBEGIN
1070
    73
1070
     1
1070
    44
1040
1.0
1070
    74
1070
     0
1000
MTEXTEND
  0
LINE
  5
1B4
330
1AB
100
AcDbEntity
  8
太実線
100
AcDbLine
 10
29.99999950326309
 20
20.00000022370682
 30
0.0
 11
29.99999950326309
 21
10.00000022370681
 31
0.0
  0
MTEXT
  5
1B5
330
1AB
100
AcDbEntity
  8
太実線
100
AcDbMText
 10
59.99999950326309
 20
20.00000022370682
 30
0.0
 40
2.5
 41
11.0
 71
     1
 72
     5
  1
検図
1001
ACAD
1000
MTEXTBEGIN
1070
    73
1070
     1
1070
    44
1040
1.0
1070
    74
1070
     0
1000
MTEXTEND
  0
LINE
  5
1B6
330
1AB
100
AcDbEntity
  8
太実線
100
AcDbLine
 10
59.99999950326309
 20
20.00000022370682
 30
0.0
 11
59.99999950326309
 21
10.00000022370681
 31
0.0
  0
MTEXT
  5
1B7
330
1AB
100
AcDbEntity
  8
太実線
100
AcDbMText
 10
38.99999948298841
 20
6.500000635272613
 30
0.0
 40
2.5
 41
0.0
 71
     1
 72
     5
  1
京 都 自 動 機 器 株 式 会 社
1001
ACAD
1000
MTEXTBEGIN
1070
    73
1070
     1
1070
    44
1040
1.0
1070
    74
1070
     0
1000
MTEXTEND
  0
LINE
  5
1B8
330
1AB
100
AcDbEntity
  8
太実線
100
AcDbLine
 10
89.9999995032631
 20
40.00000022370682
 30
0.0
 11
89.9999995032631
 21
10.00000022370681
 31
0.0
  0
MTEXT
  5
1B9
330
1AB
100
AcDbEntity
  8
太実線
100
AcDbMText
 10
89.9999995032631
 20
20.00000022370682
 30
0.0
 40
2.5
 41
21.0
 71
     1
 72
     5
  1
設計年月日
1001
ACAD
1000
MTEXTBEGIN
1070
    73
1070
     1
1070
    44
1040
1.0
1070
    74
1070
     0
1000
MTEXTEND
  0
MTEXT
  5
1BA
330
1AB
100
AcDbEntity
  8
太実線
100
AcDbMText
 10
89.9999995032631
 20
30.00000022370682
 30
0.0
 40
2.5
 41
20.0
 71
     1
 72
     5
  1
図面番号
1001
ACAD
1000
MTEXTBEGIN
1070
    73
1070
     1
1070
    44
1040
1.0
1070
    74
1070
     0
1000
MTEXTEND
  0
MTEXT
  5
1BB
330
1AB
100
AcDbEntity
  8
太実線
100
AcDbMText
 10
89.9999995032631
 20
40.00000022370682
 30
0.0
 40
2.5
 41
20.0
 71
     1
 72
     5
  1
設計番号
1001
ACAD
1000
MTEXTBEGIN
1070
    73
1070
     1
1070
    44
1040
1.0
1070
    74
1070
     0
1000
MTEXTEND
  0
LINE
  5
1BC
330
1AB
100
AcDbEntity
  8
太実線
100
AcDbLine
 10
119.999999503263
 20
0.0000002237068202
 30
0.0
 11
119.999999503263
 21
40.00000022370682
 31
0.0
  0
ENDBLK
  5
1BE
330
1AB
100
AcDbEntity
  8
0
100
AcDbBlockEnd
  0
BLOCK
  5
26C
330
26B
100
AcDbEntity
  8
ASHADE
100
AcDbBlockBegin
  2
AVE_RENDER
 70
     0
 10
0.0
 20
0.0
 30
0.0
  3
AVE_RENDER
  1
AVE_RENDER
  0
ENDBLK
  5
26D
330
26B
100
AcDbEntity
  8
0
100
AcDbBlockEnd
  0
BLOCK
  5
27A
330
279
100
AcDbEntity
  8
ASHADE
100
AcDbBlockBegin
  2
AVE_GLOBAL
 70
     0
 10
0.0
 20
0.0
 30
0.0
  3
AVE_GLOBAL
  1
AVE_GLOBAL
  0
ENDBLK
  5
27B
330
279
100
AcDbEntity
  8
0
100
AcDbBlockEnd
  0
BLOCK
  5
402
330
3F8
100
AcDbEntity
  8
0
100
AcDbBlockBegin
  2
*D4
 70
     1
 10
0.0
 20
0.0
 30
0.0
  3
*D4
  1

  0
LINE
  5
3F9
330
3F8
100
AcDbEntity
  8
寸法線
 62
     0
100
AcDbLine
 10
49.375
 20
100.0
 30
0.0
 11
40.00000000000001
 21
100.0
 31
0.0
  0
LINE
  5
3FA
330
3F8
100
AcDbEntity
  8
寸法線
 62
     0
100
AcDbLine
 10
49.375
 20
50.0
 30
0.0
 11
40.0
 21
50.0
 31
0.0
  0
LINE
  5
3FB
330
3F8
100
AcDbEntity
  8
寸法線
 62
     0
100
AcDbLine
 10
41.25000000000001
 20
97.5
 30
0.0
 11
41.25
 21
52.5
 31
0.0
  0
SOLID
  5
3FC
330
3F8
100
AcDbEntity
  8
寸法線
 62
     0
100
AcDbTrace
 10
40.83333333333334
 20
97.5
 30
0.0
 11
41.66666666666667
 21
97.5
 31
0.0
 12
41.25000000000001
 22
100.0
 32
0.0
 13
41.25000000000001
 23
100.0
 33
0.0
  0
SOLID
  5
3FD
330
3F8
100
AcDbEntity
  8
寸法線
 62
     0
100
AcDbTrace
 10
40.83333333333334
 20
52.5
 30
0.0
 11
41.66666666666666
 21
52.5
 31
0.0
 12
41.25
 22
50.0
 32
0.0
 13
41.25
 23
50.0
 33
0.0
  0
MTEXT
  5
3FE
330
3F8
100
AcDbEntity
  8
寸法線
 62
     0
100
AcDbMText
 10
39.375
 20
75.5
 30
0.0
 40
2.5
 41
0.0
 71
     5
 72
     1
  1
50
 11
0.0000000000000001
 21
1.0
 31
0.0
1001
ACAD
1000
MTEXTBEGIN
1070
    73
1070
     1
1070
    44
1040
1.0
1070
    74
1070
     0
1000
MTEXTEND
  0
POINT
  5
3FF
330
3F8
100
AcDbEntity
  8
DEFPOINTS
 62
     0
100
AcDbPoint
 10
50.0
 20
100.0
 30
0.0
  0
POINT
  5
400
330
3F8
100
AcDbEntity
  8
DEFPOINTS
 62
     0
100
AcDbPoint
 10
50.0
 20
50.0
 30
0.0
  0
POINT
  5
401
330
3F8
100
AcDbEntity
  8
DEFPOINTS
 62
     0
100
AcDbPoint
 10
41.25
 20
50.0
 30
0.0
  0
ENDBLK
  5
403
330
3F8
100
AcDbEntity
  8
0
100
AcDbBlockEnd
  0
BLOCK
  5
40E
330
404
100
AcDbEntity
  8
0
100
AcDbBlockBegin
  2
*D5
 70
     1
 10
0.0
 20
0.0
 30
0.0
  3
*D5
  1

  0
LINE
  5
405
330
404
100
AcDbEntity
  8
寸法線
 62
     0
100
AcDbLine
 10
49.375
 20
100.0
 30
0.0
 11
44.00000000000001
 21
100.0
 31
0.0
  0
LINE
  5
406
330
404
100
AcDbEntity
  8
寸法線
 62
     0
100
AcDbLine
 10
49.375
 20
90.0
 30
0.0
 11
44.00000000000001
 21
90.0
 31
0.0
  0
LINE
  5
407
330
404
100
AcDbEntity
  8
寸法線
 62
     0
100
AcDbLine
 10
45.25000000000001
 20
97.5
 30
0.0
 11
45.25000000000001
 21
92.5
 31
0.0
  0
SOLID
  5
408
330
404
100
AcDbEntity
  8
寸法線
 62
     0
100
AcDbTrace
 10
44.83333333333335
 20
97.5
 30
0.0
 11
45.66666666666668
 21
97.5
 31
0.0
 12
45.25000000000001
 22
100.0
 32
0.0
 13
45.25000000000001
 23
100.0
 33
0.0
  0
SOLID
  5
409
330
404
100
AcDbEntity
  8
寸法線
 62
     0
100
AcDbTrace
 10
44.83333333333335
 20
92.5
 30
0.0
 11
45.66666666666668
 21
92.5
 31
0.0
 12
45.25000000000001
 22
90.0
 32
0.0
 13
45.25000000000001
 23
90.0
 33
0.0
  0
MTEXT
  5
40A
330
404
100
AcDbEntity
  8
寸法線
 62
     0
100
AcDbMText
 10
43.375
 20
94.74999999999999
 30
0.0
 40
2.5
 41
0.0
 71
     5
 72
     1
  1
10
 11
0.0000000000000001
 21
1.0
 31
0.0
1001
ACAD
1000
MTEXTBEGIN
1070
    73
1070
     1
1070
    44
1040
1.0
1070
    74
1070
     0
1000
MTEXTEND
  0
POINT
  5
40B
330
404
100
AcDbEntity
  8
DEFPOINTS
 62
     0
100
AcDbPoint
 10
50.0
 20
100.0
 30
0.0
  0
POINT
  5
40C
330
404
100
AcDbEntity
  8
DEFPOINTS
 62
     0
100
AcDbPoint
 10
50.0
 20
90.0
 30
0.0
  0
POINT
  5
40D
330
404
100
AcDbEntity
  8
DEFPOINTS
 62
     0
100
AcDbPoint
 10
45.25000000000001
 20
90.0
 30
0.0
  0
ENDBLK
  5
40F
330
404
100
AcDbEntity
  8
0
100
AcDbBlockEnd
  0
BLOCK
  5
41A
330
410
100
AcDbEntity
  8
0
100
AcDbBlockBegin
  2
*D6
 70
     1
 10
0.0
 20
0.0
 30
0.0
  3
*D6
  1

  0
LINE
  5
411
330
410
100
AcDbEntity
  8
寸法線
  6
CONTINUOUS
 62
     0
100
AcDbLine
 10
57.0
 20
100.625
 30
0.0
 11
57.0
 21
115.0
 31
0.0
  0
LINE
  5
412
330
410
100
AcDbEntity
  8
寸法線
  6
CONTINUOUS
 62
     0
100
AcDbLine
 10
181.0
 20
100.625
 30
0.0
 11
181.0
 21
115.0
 31
0.0
  0
LINE
  5
413
330
410
100
AcDbEntity
  8
寸法線
  6
CONTINUOUS
 62
     0
100
AcDbLine
 10
59.5
 20
113.7499999999999
 30
0.0
 11
178.5
 21
113.7499999999999
 31
0.0
  0
SOLID
  5
414
330
410
100
AcDbEntity
  8
寸法線
  6
CONTINUOUS
 62
     0
100
AcDbTrace
 10
59.5
 20
114.1666666666666
 30
0.0
 11
59.5
 21
113.3333333333333
 31
0.0
 12
57.0
 22
113.7499999999999
 32
0.0
 13
57.0
 23
113.7499999999999
 33
0.0
  0
SOLID
  5
415
330
410
100
AcDbEntity
  8
寸法線
  6
CONTINUOUS
 62
     0
100
AcDbTrace
 10
178.5
 20
114.1666666666666
 30
0.0
 11
178.5
 21
113.3333333333333
 31
0.0
 12
181.0
 22
113.7499999999999
 32
0.0
 13
181.0
 23
113.7499999999999
 33
0.0
  0
MTEXT
  5
416
330
410
100
AcDbEntity
  8
寸法線
  6
CONTINUOUS
 62
     0
100
AcDbMText
 10
119.0
 20
115.625
 30
0.0
 40
2.5
 41
0.0
 71
     5
 72
     1
  1
124
1001
ACAD
1000
MTEXTBEGIN
1070
    73
1070
     1
1070
    44
1040
1.0
1070
    74
1070
     0
1000
MTEXTEND
  0
POINT
  5
417
330
410
100
AcDbEntity
  8
DEFPOINTS
  6
CONTINUOUS
 62
     0
100
AcDbPoint
 10
57.0
 20
100.0
 30
0.0
  0
POINT
  5
418
330
410
100
AcDbEntity
  8
DEFPOINTS
  6
CONTINUOUS
 62
     0
100
AcDbPoint
 10
181.0
 20
100.0
 30
0.0
  0
POINT
  5
419
330
410
100
AcDbEntity
  8
DEFPOINTS
  6
CONTINUOUS
 62
     0
100
AcDbPoint
 10
181.0
 20
113.7499999999999
 30
0.0
  0
ENDBLK
  5
41B
330
410
100
AcDbEntity
  8
0
100
AcDbBlockEnd
  0
BLOCK
  5
426
330
41C
100
AcDbEntity
  8
0
100
AcDbBlockBegin
  2
*D7
 70
     1
 10
0.0
 20
0.0
 30
0.0
  3
*D7
  1

  0
LINE
  5
41D
330
41C
100
AcDbEntity
  8
寸法線
  6
CONTINUOUS
 62
     0
100
AcDbLine
 10
57.0
 20
100.625
 30
0.0
 11
57.0
 21
107.25
 31
0.0
  0
LINE
  5
41E
330
41C
100
AcDbEntity
  8
寸法線
  6
CONTINUOUS
 62
     0
100
AcDbLine
 10
67.0
 20
100.625
 30
0.0
 11
67.0
 21
107.25
 31
0.0
  0
LINE
  5
41F
330
41C
100
AcDbEntity
  8
寸法線
  6
CONTINUOUS
 62
     0
100
AcDbLine
 10
59.5
 20
106.0
 30
0.0
 11
64.5
 21
106.0
 31
0.0
  0
SOLID
  5
420
330
41C
100
AcDbEntity
  8
寸法線
  6
CONTINUOUS
 62
     0
100
AcDbTrace
 10
59.5
 20
106.4166666666666
 30
0.0
 11
59.5
 21
105.5833333333333
 31
0.0
 12
57.0
 22
106.0
 32
0.0
 13
57.0
 23
106.0
 33
0.0
  0
SOLID
  5
421
330
41C
100
AcDbEntity
  8
寸法線
  6
CONTINUOUS
 62
     0
100
AcDbTrace
 10
64.5
 20
106.4166666666666
 30
0.0
 11
64.5
 21
105.5833333333333
 31
0.0
 12
67.0
 22
106.0
 32
0.0
 13
67.0
 23
106.0
 33
0.0
  0
MTEXT
  5
422
330
41C
100
AcDbEntity
  8
寸法線
  6
CONTINUOUS
 62
     0
100
AcDbMText
 10
62.25
 20
107.875
 30
0.0
 40
2.5
 41
0.0
 71
     5
 72
     1
  1
10
1001
ACAD
1000
MTEXTBEGIN
1070
    73
1070
     1
1070
    44
1040
1.0
1070
    74
1070
     0
1000
MTEXTEND
  0
POINT
  5
423
330
41C
100
AcDbEntity
  8
DEFPOINTS
  6
CONTINUOUS
 62
     0
100
AcDbPoint
 10
57.0
 20
100.0
 30
0.0
  0
POINT
  5
424
330
41C
100
AcDbEntity
  8
DEFPOINTS
  6
CONTINUOUS
 62
     0
100
AcDbPoint
 10
67.0
 20
100.0
 30
0.0
  0
POINT
  5
425
330
41C
100
AcDbEntity
  8
DEFPOINTS
  6
CONTINUOUS
 62
     0
100
AcDbPoint
 10
67.0
 20
106.0
 30
0.0
  0
ENDBLK
  5
427
330
41C
100
AcDbEntity
  8
0
100
AcDbBlockEnd
  0
BLOCK
  5
432
330
428
100
AcDbEntity
  8
0
100
AcDbBlockBegin
  2
*D8
 70
     1
 10
0.0
 20
0.0
 30
0.0
  3
*D8
  1

  0
LINE
  5
429
330
428
100
AcDbEntity
  8
寸法線
  6
CONTINUOUS
 62
     0
100
AcDbLine
 10
50.0
 20
49.375
 30
0.0
 11
50.0
 21
27.25
 31
0.0
  0
LINE
  5
42A
330
428
100
AcDbEntity
  8
寸法線
  6
CONTINUOUS
 62
     0
100
AcDbLine
 10
78.0
 20
49.375
 30
0.0
 11
78.0
 21
27.25
 31
0.0
  0
LINE
  5
42B
330
428
100
AcDbEntity
  8
寸法線
  6
CONTINUOUS
 62
     0
100
AcDbLine
 10
52.5
 20
28.5
 30
0.0
 11
75.5
 21
28.5
 31
0.0
  0
SOLID
  5
42C
330
428
100
AcDbEntity
  8
寸法線
  6
CONTINUOUS
 62
     0
100
AcDbTrace
 10
52.5
 20
28.91666666666667
 30
0.0
 11
52.5
 21
28.08333333333333
 31
0.0
 12
50.0
 22
28.5
 32
0.0
 13
50.0
 23
28.5
 33
0.0
  0
SOLID
  5
42D
330
428
100
AcDbEntity
  8
寸法線
  6
CONTINUOUS
 62
     0
100
AcDbTrace
 10
75.5
 20
28.91666666666667
 30
0.0
 11
75.5
 21
28.08333333333333
 31
0.0
 12
78.0
 22
28.5
 32
0.0
 13
78.0
 23
28.5
 33
0.0
  0
MTEXT
  5
42E
330
428
100
AcDbEntity
  8
寸法線
  6
CONTINUOUS
 62
     0
100
AcDbMText
 10
64.0
 20
30.375
 30
0.0
 40
2.5
 41
0.0
 71
     5
 72
     1
  1
28
1001
ACAD
1000
MTEXTBEGIN
1070
    73
1070
     1
1070
    44
1040
1.0
1070
    74
1070
     0
1000
MTEXTEND
  0
POINT
  5
42F
330
428
100
AcDbEntity
  8
DEFPOINTS
  6
CONTINUOUS
 62
     0
100
AcDbPoint
 10
50.0
 20
50.0
 30
0.0
  0
POINT
  5
430
330
428
100
AcDbEntity
  8
DEFPOINTS
  6
CONTINUOUS
 62
     0
100
AcDbPoint
 10
78.0
 20
50.0
 30
0.0
  0
POINT
  5
431
330
428
100
AcDbEntity
  8
DEFPOINTS
  6
CONTINUOUS
 62
     0
100
AcDbPoint
 10
78.0
 20
28.5
 30
0.0
  0
ENDBLK
  5
433
330
428
100
AcDbEntity
  8
0
100
AcDbBlockEnd
  0
BLOCK
  5
43E
330
434
100
AcDbEntity
  8
0
100
AcDbBlockBegin
  2
*D9
 70
     1
 10
0.0
 20
0.0
 30
0.0
  3
*D9
  1

  0
LINE
  5
435
330
434
100
AcDbEntity
  8
寸法線
  6
CONTINUOUS
 62
     0
100
AcDbLine
 10
57.0
 20
49.375
 30
0.0
 11
57.0
 21
18.25
 31
0.0
  0
LINE
  5
436
330
434
100
AcDbEntity
  8
寸法線
  6
CONTINUOUS
 62
     0
100
AcDbLine
 10
50.0
 20
49.375
 30
0.0
 11
50.0
 21
18.25
 31
0.0
  0
LINE
  5
437
330
434
100
AcDbEntity
  8
寸法線
  6
CONTINUOUS
 62
     0
100
AcDbLine
 10
54.5
 20
19.5
 30
0.0
 11
52.5
 21
19.5
 31
0.0
  0
SOLID
  5
438
330
434
100
AcDbEntity
  8
寸法線
  6
CONTINUOUS
 62
     0
100
AcDbTrace
 10
54.5
 20
19.91666666666666
 30
0.0
 11
54.5
 21
19.08333333333333
 31
0.0
 12
57.0
 22
19.5
 32
0.0
 13
57.0
 23
19.5
 33
0.0
  0
SOLID
  5
439
330
434
100
AcDbEntity
  8
寸法線
  6
CONTINUOUS
 62
     0
100
AcDbTrace
 10
52.5
 20
19.91666666666666
 30
0.0
 11
52.5
 21
19.08333333333333
 31
0.0
 12
50.0
 22
19.5
 32
0.0
 13
50.0
 23
19.5
 33
0.0
  0
MTEXT
  5
43A
330
434
100
AcDbEntity
  8
寸法線
  6
CONTINUOUS
 62
     0
100
AcDbMText
 10
53.5
 20
21.375
 30
0.0
 40
2.5
 41
0.0
 71
     5
 72
     1
  1
7
1001
ACAD
1000
MTEXTBEGIN
1070
    73
1070
     1
1070
    44
1040
1.0
1070
    74
1070
     0
1000
MTEXTEND
  0
POINT
  5
43B
330
434
100
AcDbEntity
  8
DEFPOINTS
  6
CONTINUOUS
 62
     0
100
AcDbPoint
 10
57.0
 20
50.0
 30
0.0
  0
POINT
  5
43C
330
434
100
AcDbEntity
  8
DEFPOINTS
  6
CONTINUOUS
 62
     0
100
AcDbPoint
 10
50.0
 20
50.0
 30
0.0
  0
POINT
  5
43D
330
434
100
AcDbEntity
  8
DEFPOINTS
  6
CONTINUOUS
 62
     0
100
AcDbPoint
 10
50.0
 20
19.5
 30
0.0
  0
ENDBLK
  5
43F
330
434
100
AcDbEntity
  8
0
100
AcDbBlockEnd
  0
BLOCK
  5
44A
330
440
100
AcDbEntity
  8
0
100
AcDbBlockBegin
  2
*D10
 70
     1
 10
0.0
 20
0.0
 30
0.0
  3
*D10
  1

  0
LINE
  5
441
330
440
100
AcDbEntity
  8
寸法線
  6
CONTINUOUS
 62
     0
100
AcDbLine
 10
57.0
 20
49.375
 30
0.0
 11
57.0
 21
18.0
 31
0.0
  0
LINE
  5
442
330
440
100
AcDbEntity
  8
寸法線
  6
CONTINUOUS
 62
     0
100
AcDbLine
 10
152.0
 20
47.075
 30
0.0
 11
152.0
 21
18.0
 31
0.0
  0
LINE
  5
443
330
440
100
AcDbEntity
  8
寸法線
  6
CONTINUOUS
 62
     0
100
AcDbLine
 10
59.5
 20
19.25
 30
0.0
 11
149.5
 21
19.25
 31
0.0
  0
SOLID
  5
444
330
440
100
AcDbEntity
  8
寸法線
  6
CONTINUOUS
 62
     0
100
AcDbTrace
 10
59.5
 20
19.66666666666666
 30
0.0
 11
59.5
 21
18.83333333333333
 31
0.0
 12
57.0
 22
19.25
 32
0.0
 13
57.0
 23
19.25
 33
0.0
  0
SOLID
  5
445
330
440
100
AcDbEntity
  8
寸法線
  6
CONTINUOUS
 62
     0
100
AcDbTrace
 10
149.5
 20
19.66666666666666
 30
0.0
 11
149.5
 21
18.83333333333333
 31
0.0
 12
152.0
 22
19.25
 32
0.0
 13
152.0
 23
19.25
 33
0.0
  0
MTEXT
  5
446
330
440
100
AcDbEntity
  8
寸法線
  6
CONTINUOUS
 62
     0
100
AcDbMText
 10
107.0
 20
21.125
 30
0.0
 40
2.5
 41
0.0
 71
     5
 72
     1
  1
95
1001
ACAD
1000
MTEXTBEGIN
1070
    73
1070
     1
1070
    44
1040
1.0
1070
    74
1070
     0
1000
MTEXTEND
  0
POINT
  5
447
330
440
100
AcDbEntity
  8
DEFPOINTS
  6
CONTINUOUS
 62
     0
100
AcDbPoint
 10
57.0
 20
50.0
 30
0.0
  0
POINT
  5
448
330
440
100
AcDbEntity
  8
DEFPOINTS
  6
CONTINUOUS
 62
     0
100
AcDbPoint
 10
152.0
 20
47.7
 30
0.0
  0
POINT
  5
449
330
440
100
AcDbEntity
  8
DEFPOINTS
  6
CONTINUOUS
 62
     0
100
AcDbPoint
 10
152.0
 20
19.25
 30
0.0
  0
ENDBLK
  5
44B
330
440
100
AcDbEntity
  8
0
100
AcDbBlockEnd
  0
BLOCK
  5
456
330
44C
100
AcDbEntity
  8
0
100
AcDbBlockBegin
  2
*D11
 70
     1
 10
0.0
 20
0.0
 30
0.0
  3
*D11
  1

  0
LINE
  5
44D
330
44C
100
AcDbEntity
  8
寸法線
  6
CONTINUOUS
 62
     0
100
AcDbLine
 10
152.0
 20
46.45
 30
0.0
 11
152.0
 21
27.75
 31
0.0
  0
LINE
  5
44E
330
44C
100
AcDbEntity
  8
寸法線
  6
CONTINUOUS
 62
     0
100
AcDbLine
 10
142.0
 20
49.375
 30
0.0
 11
142.0
 21
27.75
 31
0.0
  0
LINE
  5
44F
330
44C
100
AcDbEntity
  8
寸法線
  6
CONTINUOUS
 62
     0
100
AcDbLine
 10
149.5
 20
29.0
 30
0.0
 11
144.5
 21
29.0
 31
0.0
  0
SOLID
  5
450
330
44C
100
AcDbEntity
  8
寸法線
  6
CONTINUOUS
 62
     0
100
AcDbTrace
 10
149.5
 20
29.41666666666666
 30
0.0
 11
149.5
 21
28.58333333333333
 31
0.0
 12
152.0
 22
29.0
 32
0.0
 13
152.0
 23
29.0
 33
0.0
  0
SOLID
  5
451
330
44C
100
AcDbEntity
  8
寸法線
  6
CONTINUOUS
 62
     0
100
AcDbTrace
 10
144.5
 20
29.41666666666666
 30
0.0
 11
144.5
 21
28.58333333333333
 31
0.0
 12
142.0
 22
29.0
 32
0.0
 13
142.0
 23
29.0
 33
0.0
  0
MTEXT
  5
452
330
44C
100
AcDbEntity
  8
寸法線
  6
CONTINUOUS
 62
     0
100
AcDbMText
 10
147.0
 20
30.875
 30
0.0
 40
2.5
 41
0.0
 71
     5
 72
     1
  1
10
1001
ACAD
1000
MTEXTBEGIN
1070
    73
1070
     1
1070
    44
1040
1.0
1070
    74
1070
     0
1000
MTEXTEND
  0
POINT
  5
453
330
44C
100
AcDbEntity
  8
DEFPOINTS
  6
CONTINUOUS
 62
     0
100
AcDbPoint
 10
152.0
 20
47.075
 30
0.0
  0
POINT
  5
454
330
44C
100
AcDbEntity
  8
DEFPOINTS
  6
CONTINUOUS
 62
     0
100
AcDbPoint
 10
142.0
 20
50.0
 30
0.0
  0
POINT
  5
455
330
44C
100
AcDbEntity
  8
DEFPOINTS
  6
CONTINUOUS
 62
     0
100
AcDbPoint
 10
142.0
 20
29.0
 30
0.0
  0
ENDBLK
  5
457
330
44C
100
AcDbEntity
  8
0
100
AcDbBlockEnd
  0
BLOCK
  5
462
330
458
100
AcDbEntity
  8
0
100
AcDbBlockBegin
  2
*D12
 70
     1
 10
0.0
 20
0.0
 30
0.0
  3
*D12
  1

  0
LINE
  5
459
330
458
100
AcDbEntity
  8
寸法線
  6
CONTINUOUS
 62
     0
100
AcDbLine
 10
152.0
 20
45.825
 30
0.0
 11
152.0
 21
23.5
 31
0.0
  0
LINE
  5
45A
330
458
100
AcDbEntity
  8
寸法線
  6
CONTINUOUS
 62
     0
100
AcDbLine
 10
117.0
 20
47.075
 30
0.0
 11
117.0
 21
23.5
 31
0.0
  0
LINE
  5
45B
330
458
100
AcDbEntity
  8
寸法線
  6
CONTINUOUS
 62
     0
100
AcDbLine
 10
149.5
 20
24.75
 30
0.0
 11
119.5
 21
24.75
 31
0.0
  0
SOLID
  5
45C
330
458
100
AcDbEntity
  8
寸法線
  6
CONTINUOUS
 62
     0
100
AcDbTrace
 10
149.5
 20
25.16666666666667
 30
0.0
 11
149.5
 21
24.33333333333333
 31
0.0
 12
152.0
 22
24.75
 32
0.0
 13
152.0
 23
24.75
 33
0.0
  0
SOLID
  5
45D
330
458
100
AcDbEntity
  8
寸法線
  6
CONTINUOUS
 62
     0
100
AcDbTrace
 10
119.5
 20
25.16666666666667
 30
0.0
 11
119.5
 21
24.33333333333333
 31
0.0
 12
117.0
 22
24.75
 32
0.0
 13
117.0
 23
24.75
 33
0.0
  0
MTEXT
  5
45E
330
458
100
AcDbEntity
  8
寸法線
  6
CONTINUOUS
 62
     0
100
AcDbMText
 10
134.4999999999999
 20
26.625
 30
0.0
 40
2.5
 41
0.0
 71
     5
 72
     1
  1
35
1001
ACAD
1000
MTEXTBEGIN
1070
    73
1070
     1
1070
    44
1040
1.0
1070
    74
1070
     0
1000
MTEXTEND
  0
POINT
  5
45F
330
458
100
AcDbEntity
  8
DEFPOINTS
  6
CONTINUOUS
 62
     0
100
AcDbPoint
 10
152.0
 20
46.45
 30
0.0
  0
POINT
  5
460
330
458
100
AcDbEntity
  8
DEFPOINTS
  6
CONTINUOUS
 62
     0
100
AcDbPoint
 10
117.0
 20
47.7
 30
0.0
  0
POINT
  5
461
330
458
100
AcDbEntity
  8
DEFPOINTS
  6
CONTINUOUS
 62
     0
100
AcDbPoint
 10
117.0
 20
24.75
 30
0.0
  0
ENDBLK
  5
463
330
458
100
AcDbEntity
  8
0
100
AcDbBlockEnd
  0
BLOCK
  5
46F
330
464
100
AcDbEntity
  8
0
100
AcDbBlockBegin
  2
*D13
 70
     1
 10
0.0
 20
0.0
 30
0.0
  3
*D13
  1

  0
LINE
  5
465
330
464
100
AcDbEntity
  8
寸法線
  6
CONTINUOUS
 62
     0
100
AcDbLine
 10
127.3414366748532
 20
39.65856332514674
 30
0.0
 11
133.2309108759504
 21
33.76908912404952
 31
0.0
  0
ARC
  5
466
330
464
100
AcDbEntity
  8
寸法線
  6
CONTINUOUS
 62
     0
100
AcDbCircle
 10
116.9999999999999
 20
50.0
 30
0.0
 40
21.70397429043814
100
AcDbArc
 50
321.603341494624
 51
353.3966585053759
  0
SOLID
  5
467
330
464
100
AcDbEntity
  8
寸法線
  6
CONTINUOUS
 62
     0
100
AcDbTrace
 10
134.321156180442
 20
36.24244630815995
 30
0.0
 11
133.698941530348
 21
36.7967867934692
 31
0.0
 12
132.3470273994672
 22
34.65297260053272
 32
0.0
 13
132.3470273994672
 23
34.65297260053272
 33
0.0
  0
SOLID
  5
468
330
464
100
AcDbEntity
  8
寸法線
  6
CONTINUOUS
 62
     0
100
AcDbTrace
 10
138.1440163865365
 20
47.52814679704289
 30
0.0
 11
138.9759665012199
 21
47.48015251485627
 31
0.0
 12
138.7039742904381
 22
50.0
 32
0.0
 13
138.7039742904381
 23
50.0
 33
0.0
  0
MTEXT
  5
469
330
464
100
AcDbEntity
  8
寸法線
  6
CONTINUOUS
 62
     0
100
AcDbMText
 10
135.0438032682652
 20
41.77750737142342
 30
0.0
 40
2.5
 41
0.0
 71
     5
 72
     1
  1
45°
 11
0.4146705980924893
 21
0.9099715902585188
 31
0.0
1001
ACAD
1000
MTEXTBEGIN
1070
    73
1070
     1
1070
    44
1040
1.0
1070
    74
1070
     0
1000
MTEXTEND
  0
POINT
  5
46A
330
464
100
AcDbEntity
  8
DEFPOINTS
  6
CONTINUOUS
 62
     0
100
AcDbPoint
 10
137.9644293002481
 20
44.38259809921913
 30
0.0
  0
POINT
  5
46B
330
464
100
AcDbEntity
  8
DEFPOINTS
  6
CONTINUOUS
 62
     0
100
AcDbPoint
 10
50.0
 20
50.0
 30
0.0
  0
POINT
  5
46C
330
464
100
AcDbEntity
  8
DEFPOINTS
  6
CONTINUOUS
 62
     0
100
AcDbPoint
 10
116.9999999999999
 20
50.0
 30
0.0
  0
POINT
  5
46D
330
464
100
AcDbEntity
  8
DEFPOINTS
  6
CONTINUOUS
 62
     0
100
AcDbPoint
 10
126.8994949366116
 20
40.10050506338834
 30
0.0
  0
POINT
  5
46E
330
464
100
AcDbEntity
  8
DEFPOINTS
  6
CONTINUOUS
 62
     0
100
AcDbPoint
 10
141.9999999999999
 20
50.0
 30
0.0
  0
ENDBLK
  5
470
330
464
100
AcDbEntity
  8
0
100
AcDbBlockEnd
  0
BLOCK
  5
47B
330
471
100
AcDbEntity
  8
0
100
AcDbBlockBegin
  2
*D14
 70
     1
 10
0.0
 20
0.0
 30
0.0
  3
*D14
  1

  0
LINE
  5
472
330
471
100
AcDbEntity
  8
寸法線
  6
CONTINUOUS
 62
     0
100
AcDbLine
 10
117.4419417382415
 20
50.44194173824158
 30
0.0
 11
133.0088834764832
 21
66.00888347648314
 31
0.0
  0
LINE
  5
473
330
471
100
AcDbEntity
  8
寸法線
  6
CONTINUOUS
 62
     0
100
AcDbLine
 10
127.7833784130948
 20
40.10050506338831
 30
0.0
 11
143.3503201513364
 21
55.66744680162987
 31
0.0
  0
LINE
  5
474
330
471
100
AcDbEntity
  8
寸法線
  6
CONTINUOUS
 62
     0
100
AcDbLine
 10
133.8927669529663
 20
63.35723304703358
 30
0.0
 11
140.6986697218868
 21
56.55133027811306
 31
0.0
  0
SOLID
  5
475
330
471
100
AcDbEntity
  8
寸法線
  6
CONTINUOUS
 62
     0
100
AcDbTrace
 10
134.1873947784607
 20
63.65186087252797
 30
0.0
 11
133.598139127472
 21
63.0626052215392
 31
0.0
 12
132.125
 22
65.12499999999995
 32
0.0
 13
132.125
 23
65.12499999999995
 33
0.0
  0
SOLID
  5
476
330
471
100
AcDbEntity
  8
寸法線
  6
CONTINUOUS
 62
     0
100
AcDbTrace
 10
140.9932975473812
 20
56.84595810360744
 30
0.0
 11
140.4040418963925
 21
56.25670245261867
 31
0.0
 12
142.4664366748532
 22
54.78356332514668
 32
0.0
 13
142.4664366748532
 23
54.78356332514668
 33
0.0
  0
MTEXT
  5
477
330
471
100
AcDbEntity
  8
寸法線
  6
CONTINUOUS
 62
     0
100
AcDbMText
 10
138.6215435521514
 20
61.28010687729809
 30
0.0
 40
2.5
 41
0.0
 71
     5
 72
     1
  1
14
 11
0.7071067811865461
 21
-0.7071067811865492
 31
0.0
1001
ACAD
1000
MTEXTBEGIN
1070
    73
1070
     1
1070
    44
1040
1.0
1070
    74
1070
     0
1000
MTEXTEND
  0
POINT
  5
478
330
471
100
AcDbEntity
  8
DEFPOINTS
  6
CONTINUOUS
 62
     0
100
AcDbPoint
 10
116.9999999999999
 20
49.99999999999999
 30
0.0
  0
POINT
  5
479
330
471
100
AcDbEntity
  8
DEFPOINTS
  6
CONTINUOUS
 62
     0
100
AcDbPoint
 10
127.3414366748532
 20
39.65856332514672
 30
0.0
  0
POINT
  5
47A
330
471
100
AcDbEntity
  8
DEFPOINTS
  6
CONTINUOUS
 62
     0
100
AcDbPoint
 10
142.4664366748532
 20
54.78356332514668
 30
0.0
  0
ENDBLK
  5
47C
330
471
100
AcDbEntity
  8
0
100
AcDbBlockEnd
  0
BLOCK
  5
487
330
47D
100
AcDbEntity
  8
0
100
AcDbBlockBegin
  2
*D15
 70
     1
 10
0.0
 20
0.0
 30
0.0
  3
*D15
  1

  0
LINE
  5
47E
330
47D
100
AcDbEntity
  8
寸法線
  6
CONTINUOUS
 62
     0
100
AcDbLine
 10
63.87500000000001
 20
145.7
 30
0.0
 11
42.25
 21
145.7
 31
0.0
  0
LINE
  5
47F
330
47D
100
AcDbEntity
  8
寸法線
  6
CONTINUOUS
 62
     0
100
AcDbLine
 10
49.375
 20
157.6999999999999
 30
0.0
 11
42.25
 21
157.6999999999999
 31
0.0
  0
LINE
  5
480
330
47D
100
AcDbEntity
  8
寸法線
  6
CONTINUOUS
 62
     0
100
AcDbLine
 10
43.5
 20
148.2
 30
0.0
 11
43.5
 21
155.1999999999999
 31
0.0
  0
SOLID
  5
481
330
47D
100
AcDbEntity
  8
寸法線
  6
CONTINUOUS
 62
     0
100
AcDbTrace
 10
43.08333333333333
 20
148.2
 30
0.0
 11
43.91666666666666
 21
148.2
 31
0.0
 12
43.5
 22
145.7
 32
0.0
 13
43.5
 23
145.7
 33
0.0
  0
SOLID
  5
482
330
47D
100
AcDbEntity
  8
寸法線
  6
CONTINUOUS
 62
     0
100
AcDbTrace
 10
43.08333333333333
 20
155.1999999999999
 30
0.0
 11
43.91666666666666
 21
155.1999999999999
 31
0.0
 12
43.5
 22
157.6999999999999
 32
0.0
 13
43.5
 23
157.6999999999999
 33
0.0
  0
MTEXT
  5
483
330
47D
100
AcDbEntity
  8
寸法線
  6
CONTINUOUS
 62
     0
100
AcDbMText
 10
41.62499999999996
 20
151.6999999999999
 30
0.0
 40
2.5
 41
0.0
 71
     5
 72
     1
  1
12
 11
0.0000000000000001
 21
1.0
 31
0.0
1001
ACAD
1000
MTEXTBEGIN
1070
    73
1070
     1
1070
    44
1040
1.0
1070
    74
1070
     0
1000
MTEXTEND
  0
POINT
  5
484
330
47D
100
AcDbEntity
  8
DEFPOINTS
  6
CONTINUOUS
 62
     0
100
AcDbPoint
 10
64.5
 20
145.6999999999999
 30
0.0
  0
POINT
  5
485
330
47D
100
AcDbEntity
  8
DEFPOINTS
  6
CONTINUOUS
 62
     0
100
AcDbPoint
 10
50.0
 20
157.6999999999999
 30
0.0
  0
POINT
  5
486
330
47D
100
AcDbEntity
  8
DEFPOINTS
  6
CONTINUOUS
 62
     0
100
AcDbPoint
 10
43.5
 20
157.6999999999999
 30
0.0
  0
ENDBLK
  5
488
330
47D
100
AcDbEntity
  8
0
100
AcDbBlockEnd
  0
BLOCK
  5
493
330
489
100
AcDbEntity
  8
0
100
AcDbBlockBegin
  2
*D16
 70
     1
 10
0.0
 20
0.0
 30
0.0
  3
*D16
  1

  0
LINE
  5
48A
330
489
100
AcDbEntity
  8
寸法線
  6
CONTINUOUS
 62
     0
100
AcDbLine
 10
48.75
 20
157.6999999999999
 30
0.0
 11
43.49999999999994
 21
157.6999999999999
 31
0.0
  0
LINE
  5
48B
330
489
100
AcDbEntity
  8
寸法線
  6
CONTINUOUS
 62
     0
100
AcDbLine
 10
49.375
 20
462.6999999999999
 30
0.0
 11
43.5
 21
462.6999999999999
 31
0.0
  0
LINE
  5
48C
330
489
100
AcDbEntity
  8
寸法線
  6
CONTINUOUS
 62
     0
100
AcDbLine
 10
44.74999999999994
 20
160.1999999999999
 30
0.0
 11
44.75
 21
460.2
 31
0.0
  0
SOLID
  5
48D
330
489
100
AcDbEntity
  8
寸法線
  6
CONTINUOUS
 62
     0
100
AcDbTrace
 10
44.33333333333328
 20
160.1999999999999
 30
0.0
 11
45.16666666666661
 21
160.1999999999999
 31
0.0
 12
44.74999999999994
 22
157.6999999999999
 32
0.0
 13
44.74999999999994
 23
157.6999999999999
 33
0.0
  0
SOLID
  5
48E
330
489
100
AcDbEntity
  8
寸法線
  6
CONTINUOUS
 62
     0
100
AcDbTrace
 10
44.33333333333334
 20
460.2
 30
0.0
 11
45.16666666666667
 21
460.2
 31
0.0
 12
44.75
 22
462.6999999999999
 32
0.0
 13
44.75
 23
462.6999999999999
 33
0.0
  0
MTEXT
  5
48F
330
489
100
AcDbEntity
  8
寸法線
  6
CONTINUOUS
 62
     0
100
AcDbMText
 10
42.47727272727265
 20
310.1999999999999
 30
0.0
 40
2.5
 41
0.0
 71
     5
 72
     1
  1
{\fMS UI Gothic|b0|i0|c128|p50;バケットのＢ寸法現合約305}
 11
0.0000000000000001
 21
1.0
 31
0.0
1001
ACAD
1000
MTEXTBEGIN
1070
    73
1070
     1
1070
    44
1040
1.0
1070
    74
1070
     0
1000
MTEXTEND
  0
POINT
  5
490
330
489
100
AcDbEntity
  8
DEFPOINTS
  6
CONTINUOUS
 62
     0
100
AcDbPoint
 10
49.375
 20
157.6999999999999
 30
0.0
  0
POINT
  5
491
330
489
100
AcDbEntity
  8
DEFPOINTS
  6
CONTINUOUS
 62
     0
100
AcDbPoint
 10
50.0
 20
462.6999999999999
 30
0.0
  0
POINT
  5
492
330
489
100
AcDbEntity
  8
DEFPOINTS
  6
CONTINUOUS
 62
     0
100
AcDbPoint
 10
44.75
 20
462.6999999999999
 30
0.0
  0
ENDBLK
  5
494
330
489
100
AcDbEntity
  8
0
100
AcDbBlockEnd
  0
BLOCK
  5
49F
330
495
100
AcDbEntity
  8
0
100
AcDbBlockBegin
  2
*D17
 70
     1
 10
0.0
 20
0.0
 30
0.0
  3
*D17
  1

  0
LINE
  5
496
330
495
100
AcDbEntity
  8
寸法線
  6
CONTINUOUS
 62
     0
100
AcDbLine
 10
44.125
 20
462.6999999999999
 30
0.0
 11
43.49999999999999
 21
462.6999999999999
 31
0.0
  0
LINE
  5
497
330
495
100
AcDbEntity
  8
寸法線
  6
CONTINUOUS
 62
     0
100
AcDbLine
 10
63.87500000000001
 20
474.6999999999999
 30
0.0
 11
43.5
 21
474.6999999999999
 31
0.0
  0
LINE
  5
498
330
495
100
AcDbEntity
  8
寸法線
  6
CONTINUOUS
 62
     0
100
AcDbLine
 10
44.75
 20
465.2
 30
0.0
 11
44.75
 21
472.2
 31
0.0
  0
SOLID
  5
499
330
495
100
AcDbEntity
  8
寸法線
  6
CONTINUOUS
 62
     0
100
AcDbTrace
 10
44.33333333333333
 20
465.2
 30
0.0
 11
45.16666666666666
 21
465.2
 31
0.0
 12
44.74999999999999
 22
462.6999999999999
 32
0.0
 13
44.74999999999999
 23
462.6999999999999
 33
0.0
  0
SOLID
  5
49A
330
495
100
AcDbEntity
  8
寸法線
  6
CONTINUOUS
 62
     0
100
AcDbTrace
 10
44.33333333333333
 20
472.2
 30
0.0
 11
45.16666666666666
 21
472.2
 31
0.0
 12
44.75
 22
474.6999999999999
 32
0.0
 13
44.75
 23
474.6999999999999
 33
0.0
  0
MTEXT
  5
49B
330
495
100
AcDbEntity
  8
寸法線
  6
CONTINUOUS
 62
     0
100
AcDbMText
 10
42.87499999999992
 20
468.7
 30
0.0
 40
2.5
 41
0.0
 71
     5
 72
     1
  1
12
 11
0.0000000000000001
 21
1.0
 31
0.0
1001
ACAD
1000
MTEXTBEGIN
1070
    73
1070
     1
1070
    44
1040
1.0
1070
    74
1070
     0
1000
MTEXTEND
  0
POINT
  5
49C
330
495
100
AcDbEntity
  8
DEFPOINTS
  6
CONTINUOUS
 62
     0
100
AcDbPoint
 10
44.75
 20
462.6999999999999
 30
0.0
  0
POINT
  5
49D
330
495
100
AcDbEntity
  8
DEFPOINTS
  6
CONTINUOUS
 62
     0
100
AcDbPoint
 10
64.5
 20
474.6999999999999
 30
0.0
  0
POINT
  5
49E
330
495
100
AcDbEntity
  8
DEFPOINTS
  6
CONTINUOUS
 62
     0
100
AcDbPoint
 10
44.75
 20
474.6999999999999
 30
0.0
  0
ENDBLK
  5
4A0
330
495
100
AcDbEntity
  8
0
100
AcDbBlockEnd
  0
BLOCK
  5
4AB
330
4A1
100
AcDbEntity
  8
0
100
AcDbBlockBegin
  2
*D18
 70
     1
 10
0.0
 20
0.0
 30
0.0
  3
*D18
  1

  0
LINE
  5
4A2
330
4A1
100
AcDbEntity
  8
寸法線
  6
CONTINUOUS
 62
     0
100
AcDbLine
 10
102.3749999999999
 20
450.1999999999999
 30
0.0
 11
86.25000000000005
 21
450.1999999999999
 31
0.0
  0
LINE
  5
4A3
330
4A1
100
AcDbEntity
  8
寸法線
  6
CONTINUOUS
 62
     0
100
AcDbLine
 10
102.3749999999999
 20
170.1999999999999
 30
0.0
 11
86.25
 21
170.1999999999999
 31
0.0
  0
LINE
  5
4A4
330
4A1
100
AcDbEntity
  8
寸法線
  6
CONTINUOUS
 62
     0
100
AcDbLine
 10
87.50000000000005
 20
447.7
 30
0.0
 11
87.5
 21
172.6999999999999
 31
0.0
  0
SOLID
  5
4A5
330
4A1
100
AcDbEntity
  8
寸法線
  6
CONTINUOUS
 62
     0
100
AcDbTrace
 10
87.08333333333339
 20
447.7
 30
0.0
 11
87.91666666666673
 21
447.7
 31
0.0
 12
87.50000000000005
 22
450.1999999999999
 32
0.0
 13
87.50000000000005
 23
450.1999999999999
 33
0.0
  0
SOLID
  5
4A6
330
4A1
100
AcDbEntity
  8
寸法線
  6
CONTINUOUS
 62
     0
100
AcDbTrace
 10
87.08333333333333
 20
172.6999999999999
 30
0.0
 11
87.91666666666667
 21
172.6999999999999
 31
0.0
 12
87.5
 22
170.1999999999999
 32
0.0
 13
87.5
 23
170.1999999999999
 33
0.0
  0
MTEXT
  5
4A7
330
4A1
100
AcDbEntity
  8
寸法線
  6
CONTINUOUS
 62
     0
100
AcDbMText
 10
85.22727272727271
 20
310.1999999999999
 30
0.0
 40
2.5
 41
0.0
 71
     5
 72
     1
  1
{\fMS UI Gothic|b0|i0|c128|p50;バケットのＡ寸法}
 11
0.0000000000000001
 21
1.0
 31
0.0
1001
ACAD
1000
MTEXTBEGIN
1070
    73
1070
     1
1070
    44
1040
1.0
1070
    74
1070
     0
1000
MTEXTEND
  0
POINT
  5
4A8
330
4A1
100
AcDbEntity
  8
DEFPOINTS
  6
CONTINUOUS
 62
     0
100
AcDbPoint
 10
103.0
 20
450.1999999999999
 30
0.0
  0
POINT
  5
4A9
330
4A1
100
AcDbEntity
  8
DEFPOINTS
  6
CONTINUOUS
 62
     0
100
AcDbPoint
 10
103.0
 20
170.1999999999999
 30
0.0
  0
POINT
  5
4AA
330
4A1
100
AcDbEntity
  8
DEFPOINTS
  6
CONTINUOUS
 62
     0
100
AcDbPoint
 10
87.5
 20
170.1999999999999
 30
0.0
  0
ENDBLK
  5
4AC
330
4A1
100
AcDbEntity
  8
0
100
AcDbBlockEnd
  0
BLOCK
  5
4F8
330
4B0
100
AcDbEntity
  8
0
100
AcDbBlockBegin
  2
A$C318A2D0B
 70
     0
 10
0.0
 20
0.0
 30
0.0
  3
A$C318A2D0B
  1

  0
DIMENSION
  5
4B1
330
4B0
100
AcDbEntity
  8
寸法線
  6
CONTINUOUS
100
AcDbDimension
  2
*D18
 10
49.37500081711596
 20
152.200000406038
 30
0.0
 11
47.10227354438866
 21
292.2000004060381
 31
0.0
 12
-38.12499918288404
 22
-17.99999959396188
 32
0.0
  1
{\fMS UI Gothic|b0|i0|c128|p50;バケットのＡ寸法}
  3
ISO-25
100
AcDbAlignedDimension
 13
64.87500081711596
 23
432.2000004060381
 33
0.0
 14
64.87500081711596
 24
152.200000406038
 34
0.0
 50
90.0
100
AcDbRotatedDimension
  0
DIMENSION
  5
4B2
330
4B0
100
AcDbEntity
  8
寸法線
  6
CONTINUOUS
100
AcDbDimension
  2
*D16
 10
6.625000817115967
 20
444.7000004060381
 30
0.0
 11
4.352273544388616
 21
292.2000004060381
 31
0.0
 12
-38.12499918288404
 22
-17.99999959396188
 32
0.0
  1
{\fMS UI Gothic|b0|i0|c128|p50;バケットのＢ寸法現合約305}
  3
ISO-25
100
AcDbAlignedDimension
 13
11.25000081711596
 23
139.700000406038
 33
0.0
 14
11.87500081711596
 24
444.7000004060381
 34
0.0
 50
90.0
100
AcDbRotatedDimension
  0
LINE
  5
4B3
330
4B0
100
AcDbEntity
  8
隠線
100
AcDbLine
 10
78.87500081711596
 20
432.2000004060381
 30
0.0
 11
78.87500081711596
 21
152.200000406038
 31
0.0
  0
LINE
  5
4B4
330
4B0
100
AcDbEntity
  8
隠線
100
AcDbLine
 10
64.87500081711596
 20
432.2000004060381
 30
0.0
 11
64.87500081711596
 21
152.200000406038
 31
0.0
  0
LINE
  5
4B5
330
4B0
100
AcDbEntity
  8
隠線
100
AcDbLine
 10
88.77449575372763
 20
152.200000406038
 30
0.0
 11
88.77449575372763
 21
432.2000004060381
 31
0.0
  0
LINE
  5
4B6
330
4B0
100
AcDbEntity
  8
外形線
100
AcDbLine
 10
113.8750008171159
 20
144.3000004060381
 30
0.0
 11
113.8750008171159
 21
440.1000004060381
 31
0.0
  0
LINE
  5
4B7
330
4B0
100
AcDbEntity
  8
外形線
100
AcDbLine
 10
103.8750008171159
 20
440.1000004060381
 30
0.0
 11
103.8750008171159
 21
144.3000004060381
 31
0.0
  0
LINE
  5
4B8
330
4B0
100
AcDbEntity
  8
外形線
100
AcDbLine
 10
18.87500081711596
 20
142.0000004060381
 30
0.0
 11
18.87500081711596
 21
442.400000406038
 31
0.0
  0
DIMENSION
  5
4B9
330
4B0
100
AcDbEntity
  8
寸法線
  6
CONTINUOUS
100
AcDbDimension
  2
*D15
 10
5.37500081711596
 20
139.700000406038
 30
0.0
 11
3.500000817115932
 21
133.7000004060381
 31
0.0
 12
-38.12499918288404
 22
-17.99999959396188
 32
0.0
  3
ISO-25
100
AcDbAlignedDimension
 13
26.37500081711596
 23
127.7000004060381
 33
0.0
 14
11.87500081711596
 24
139.700000406038
 34
0.0
 50
90.0
100
AcDbRotatedDimension
  0
LINE
  5
4BA
330
4B0
100
AcDbEntity
  8
外形細線
100
AcDbLine
 10
31.37500081711596
 20
139.700000406038
 30
0.0
 11
31.37500081711596
 21
127.7000004060381
 31
0.0
  0
LINE
  5
4BB
330
4B0
100
AcDbEntity
  8
外形細線
100
AcDbLine
 10
26.37500081711596
 20
139.700000406038
 30
0.0
 11
26.37500081711596
 21
127.7000004060381
 31
0.0
  0
LINE
  5
4BC
330
4B0
100
AcDbEntity
  8
外形線
100
AcDbLine
 10
31.87500081711596
 20
127.9886755406329
 30
0.0
 11
31.87500081711596
 21
139.700000406038
 31
0.0
  0
LINE
  5
4BD
330
4B0
100
AcDbEntity
  8
外形線
100
AcDbLine
 10
25.87500081711596
 20
139.700000406038
 30
0.0
 11
25.87500081711596
 21
127.9886755406329
 31
0.0
  0
DIMENSION
  5
4BE
330
4B0
100
AcDbEntity
  8
寸法線
  6
CONTINUOUS
100
AcDbDimension
  2
*D12
 10
78.87500081711596
 20
6.750000406038111
 30
0.0
 11
96.37500081711596
 21
8.625000406038111
 31
0.0
 12
-38.12499918288404
 22
-17.99999959396188
 32
0.0
  3
ISO-25
100
AcDbAlignedDimension
 13
113.8750008171159
 23
28.45000040603811
 33
0.0
 14
78.87500081711596
 24
29.70000040603811
 34
0.0
100
AcDbRotatedDimension
  0
DIMENSION
  5
4BF
330
4B0
100
AcDbEntity
  8
寸法線
  6
CONTINUOUS
100
AcDbDimension
  2
*D10
 10
113.8750008171159
 20
1.250000406038111
 30
0.0
 11
68.87500081711596
 21
1.250000406038111
 31
0.0
 12
-38.12499918288404
 22
-17.99999959396188
 32
0.0
 70
   128
  3
ISO-25
100
AcDbAlignedDimension
 13
18.87500081711596
 23
32.00000040603811
 33
0.0
 14
113.8750008171159
 24
29.70000040603811
 34
0.0
100
AcDbRotatedDimension
  0
DIMENSION
  5
4C0
330
4B0
100
AcDbEntity
  8
寸法線
  6
CONTINUOUS
100
AcDbDimension
  2
*D9
 10
11.87500081711596
 20
1.500000406038111
 30
0.0
 11
15.37500081711596
 21
3.375000406038111
 31
0.0
 12
-38.12499918288404
 22
-17.99999959396188
 32
0.0
  3
ISO-25
100
AcDbAlignedDimension
 13
18.87500081711596
 23
32.00000040603811
 33
0.0
 14
11.87500081711596
 24
32.00000040603811
 34
0.0
100
AcDbRotatedDimension
  0
DIMENSION
  5
4C1
330
4B0
100
AcDbEntity
  8
寸法線
  6
CONTINUOUS
100
AcDbDimension
  2
*D14
 10
104.3414374919692
 20
36.78356373118479
 30
0.0
 11
100.4965443692673
 21
43.2801072833362
 31
0.0
 12
-38.12499918288404
 22
-17.99999959396188
 32
0.0
 70
     1
  1
14
  3
ISO-25
100
AcDbAlignedDimension
 13
78.87500081711596
 23
32.00000040603811
 33
0.0
 14
89.2164374919692
 24
21.65856373118484
 34
0.0
  0
DIMENSION
  5
4C2
330
4B0
100
AcDbEntity
  8
寸法線
  6
CONTINUOUS
100
AcDbDimension
  2
*D13
 10
103.8750008171159
 20
32.00000040603811
 30
0.0
 11
98.62500081711596
 21
23.00000040603812
 31
0.0
 12
-38.12499918288404
 22
-17.99999959396188
 32
0.0
 70
   130
  3
ISO-25
100
AcDb2LineAngularDimension
 13
78.87500081711596
 23
32.00000040603811
 33
0.0
 14
88.77449575372763
 24
22.10050546942644
 34
0.0
 15
11.87500081711596
 25
32.00000040603811
 35
0.0
 16
99.83943011736412
 26
26.38259850525725
 36
0.0
1001
ACAD
1000
DSTYLE
1002
{
1070
   271
1070
     0
1002
}
  0
DIMENSION
  5
4C3
330
4B0
100
AcDbEntity
  8
寸法線
  6
CONTINUOUS
100
AcDbDimension
  2
*D6
 10
142.8750008171159
 20
95.75000040603811
 30
0.0
 11
80.87500081711596
 21
97.62500040603811
 31
0.0
 12
-38.12499918288404
 22
-17.99999959396188
 32
0.0
  3
ISO-25
100
AcDbAlignedDimension
 13
18.87500081711596
 23
82.00000040603811
 33
0.0
 14
142.8750008171159
 24
82.00000040603811
 34
0.0
100
AcDbRotatedDimension
  0
LINE
  5
4C4
330
4B0
100
AcDbEntity
  8
隠線
100
AcDbLine
 10
18.87500081711596
 20
34.30000040603811
 30
0.0
 11
103.8750008171159
 21
34.30000040603811
 31
0.0
  0
LINE
  5
4C5
330
4B0
100
AcDbEntity
  8
外形線
100
AcDbLine
 10
77.92230962365781
 20
29.7000004060381
 30
0.0
 11
87.14815015699855
 21
20.47415987269738
 31
0.0
  0
LINE
  5
4C6
330
4B0
100
AcDbEntity
  8
外形線
100
AcDbLine
 10
78.87500081711596
 20
32.00000040603811
 30
0.0
 11
88.77449575372763
 21
22.10050546942644
 31
0.0
  0
LINE
  5
4C7
330
4B0
100
AcDbEntity
  8
外形線
100
AcDbLine
 10
11.87500081711596
 20
32.00000040603811
 30
0.0
 11
103.8750008171159
 21
32.00000040603811
 31
0.0
  0
LINE
  5
4C8
330
4B0
100
AcDbEntity
  8
外形線
100
AcDbLine
 10
11.87500081711596
 20
82.00000040603811
 30
0.0
 11
142.8750008171159
 21
82.00000040603811
 31
0.0
  0
DIMENSION
  5
4C9
330
4B0
100
AcDbEntity
  8
寸法線
100
AcDbDimension
  2
*D4
 10
3.125000817115967
 20
32.00000040603812
 30
0.0
 11
3.12500081711596
 21
57.50000040603811
 31
0.0
 12
-38.12499918288404
 22
-17.99999959396188
 32
0.0
 70
   128
  3
ISO-25
100
AcDbAlignedDimension
 13
11.87500081711596
 23
82.00000040603811
 33
0.0
 14
11.87500081711596
 24
32.00000040603811
 34
0.0
 50
90.0
100
AcDbRotatedDimension
  0
CIRCLE
  5
4CA
330
4B0
100
AcDbEntity
  8
外形線
100
AcDbCircle
 10
28.87500081711596
 20
72.00000040603811
 30
0.0
 40
2.5
  0
CIRCLE
  5
4CB
330
4B0
100
AcDbEntity
  8
外形細線
100
AcDbCircle
 10
28.87500081711596
 20
72.00000040603811
 30
0.0
 40
3.0
  0
LINE
  5
4CC
330
4B0
100
AcDbEntity
  8
隠線
100
AcDbLine
 10
18.87500081711596
 20
82.00000040603811
 30
0.0
 11
18.87500081711596
 21
32.00000040603811
 31
0.0
  0
LINE
  5
4CD
330
4B0
100
AcDbEntity
  8
外形線
100
AcDbLine
 10
39.87500081711596
 20
82.00000040603812
 30
0.0
 11
39.87500081711596
 21
32.00000040603812
 31
0.0
  0
LINE
  5
4CE
330
4B0
100
AcDbEntity
  8
外形線
100
AcDbLine
 10
11.87500081711596
 20
32.00000040603811
 30
0.0
 11
11.87500081711596
 21
82.00000040603811
 31
0.0
  0
DIMENSION
  5
4CF
330
4B0
100
AcDbEntity
  8
寸法線
  6
CONTINUOUS
100
AcDbDimension
  2
*D8
 10
39.87500081711596
 20
10.50000040603811
 30
0.0
 11
25.87500081711596
 21
12.37500040603811
 31
0.0
 12
-38.12499918288404
 22
-17.99999959396188
 32
0.0
  3
ISO-25
100
AcDbAlignedDimension
 13
11.87500081711596
 23
32.00000040603811
 33
0.0
 14
39.87500081711596
 24
32.00000040603811
 34
0.0
100
AcDbRotatedDimension
  0
MTEXT
  5
4D0
330
4B0
100
AcDbEntity
  8
寸法線
  6
CONTINUOUS
100
AcDbMText
 10
23.87500081711596
 20
52.50000040603811
 30
0.0
 40
2.5
 41
16.0
 71
     1
 72
     5
  1
t2.3
1001
ACAD
1000
MTEXTBEGIN
1070
    73
1070
     1
1070
    44
1040
1.0
1070
    74
1070
     0
1000
MTEXTEND
  0
LINE
  5
4D1
330
4B0
100
AcDbEntity
  8
外形線
100
AcDbLine
 10
64.87500081711596
 20
29.70000040603811
 30
0.0
 11
77.92230962365779
 21
29.70000040603811
 31
0.0
  0
LINE
  5
4D2
330
4B0
100
AcDbEntity
  8
外形線
100
AcDbLine
 10
64.87500081711596
 20
32.00000040603811
 30
0.0
 11
64.87500081711596
 21
29.70000040603811
 31
0.0
  0
LINE
  5
4D3
330
4B0
100
AcDbEntity
  8
外形線
100
AcDbLine
 10
78.87423494795413
 20
29.70000040603811
 30
0.0
 11
78.87500081711596
 21
29.70000040603811
 31
0.0
  0
MTEXT
  5
4D4
330
4B0
100
AcDbEntity
  8
寸法線
  6
CONTINUOUS
100
AcDbMText
 10
52.12500081711596
 20
53.00000040603811
 30
0.0
 40
2.5
 41
12.0
 71
     1
 72
     5
  1
t2.3
1001
ACAD
1000
MTEXTBEGIN
1070
    73
1070
     1
1070
    44
1040
1.0
1070
    74
1070
     0
1000
MTEXTEND
  0
LEADER
  5
4D5
330
4B0
100
AcDbEntity
  8
寸法線
  6
CONTINUOUS
100
AcDbLeader
  3
ISO-25
 40
2.5
 41
9.166666666666666
 76
     3
 10
31.87500081711596
 20
127.9886755406329
 30
0.0
 10
41.62500081711596
 20
117.2500004060381
 30
0.0
 10
65.12500081711596
 20
117.2500004060381
 30
0.0
213
0.0
223
-1.25
233
0.0
1001
ACAD
1000
DSTYLE
1002
{
1070
     5
1000

1070
    77
1070
     0
1070
   147
1040
0.625
1002
}
  0
DIMENSION
  5
4D6
330
4B0
100
AcDbEntity
  8
寸法線
  6
CONTINUOUS
100
AcDbDimension
  2
*D7
 10
28.87500081711596
 20
88.0000004060381
 30
0.0
 11
24.12500081711596
 21
88.0000004060381
 31
0.0
 12
-38.12499918288404
 22
-17.99999959396188
 32
0.0
 70
   128
  3
ISO-25
100
AcDbAlignedDimension
 13
18.87500081711596
 23
82.00000040603811
 33
0.0
 14
28.87500081711596
 24
82.00000040603811
 34
0.0
100
AcDbRotatedDimension
  0
DIMENSION
  5
4D7
330
4B0
100
AcDbEntity
  8
寸法線
100
AcDbDimension
  2
*D5
 10
7.125000817115974
 20
72.00000040603811
 30
0.0
 11
7.12500081711596
 21
76.75000040603811
 31
0.0
 12
-38.12499918288404
 22
-17.99999959396188
 32
0.0
 70
   128
  3
ISO-25
100
AcDbAlignedDimension
 13
11.87500081711596
 23
82.00000040603811
 33
0.0
 14
11.87500081711596
 24
72.00000040603811
 34
0.0
 50
90.0
100
AcDbRotatedDimension
  0
LINE
  5
4D8
330
4B0
100
AcDbEntity
  8
外形線
100
AcDbLine
 10
25.87500081711596
 20
127.9886755406329
 30
0.0
 11
31.87500081711596
 21
127.9886755406329
 31
0.0
  0
LINE
  5
4D9
330
4B0
100
AcDbEntity
  8
外形線
100
AcDbLine
 10
26.37500081711596
 20
127.7000004060381
 30
0.0
 11
31.37500081711596
 21
127.7000004060381
 31
0.0
  0
LINE
  5
4DA
330
4B0
100
AcDbEntity
  8
外形線
100
AcDbLine
 10
25.87500081711596
 20
127.9886755406329
 30
0.0
 11
26.37500081711596
 21
127.7000004060381
 31
0.0
  0
LINE
  5
4DB
330
4B0
100
AcDbEntity
  8
外形線
100
AcDbLine
 10
31.37500081711596
 20
127.7000004060381
 30
0.0
 11
31.87500081711596
 21
127.9886755406329
 31
0.0
  0
MTEXT
  5
4DC
330
4B0
100
AcDbEntity
  8
寸法線
  6
CONTINUOUS
100
AcDbMText
 10
49.87500041019689
 20
121.000000760709
 30
0.0
 40
2.5
 41
0.0
 71
     1
 72
     1
  1
2-M6
1001
ACAD
1000
MTEXTBEGIN
1070
    73
1070
     1
1070
    44
1040
1.0
1070
    74
1070
     0
1000
MTEXTEND
  0
LINE
  5
4DD
330
4B0
100
AcDbEntity
  8
外形線
100
AcDbLine
 10
113.8750008171159
 20
29.70000040603811
 30
0.0
 11
142.8750008171159
 21
82.00000040603811
 31
0.0
  0
DIMENSION
  5
4DE
330
4B0
100
AcDbEntity
  8
寸法線
  6
CONTINUOUS
100
AcDbDimension
  2
*D11
 10
103.8750008171159
 20
11.00000040603811
 30
0.0
 11
108.8750008171159
 21
12.87500040603811
 31
0.0
 12
-38.12499918288404
 22
-17.99999959396188
 32
0.0
  3
ISO-25
100
AcDbAlignedDimension
 13
113.8750008171159
 23
29.07500040603811
 33
0.0
 14
103.8750008171159
 24
32.00000040603811
 34
0.0
100
AcDbRotatedDimension
  0
LINE
  5
4DF
330
4B0
100
AcDbEntity
  8
隠線
100
AcDbLine
 10
103.8750008171159
 20
34.30000040603811
 30
0.0
 11
115.0356160571417
 21
31.79310995960189
 31
0.0
  0
LINE
  5
4E0
330
4B0
100
AcDbEntity
  8
外形線
100
AcDbLine
 10
103.8750008171159
 20
32.00000040603811
 30
0.0
 11
113.8750008171159
 21
29.70000040603811
 31
0.0
  0
LINE
  5
4E1
330
4B0
100
AcDbEntity
  8
外形線
100
AcDbLine
 10
88.77449575372763
 20
22.10050546942644
 30
0.0
 11
87.14815015699855
 21
20.47415987269738
 31
0.0
  0
LINE
  5
4E2
330
4B0
100
AcDbEntity
  8
隠線
100
AcDbLine
 10
64.87500081711596
 20
152.200000406038
 30
0.0
 11
88.77449575372763
 21
152.200000406038
 31
0.0
  0
LINE
  5
4E3
330
4B0
100
AcDbEntity
  8
外形線
100
AcDbLine
 10
142.8750008171159
 20
144.3000004060381
 30
0.0
 11
22.85871767452444
 21
144.3000004060381
 31
0.0
  0
LINE
  5
4E4
330
4B0
100
AcDbEntity
  8
外形線
100
AcDbLine
 10
15.8587176745244
 20
142.0000004060381
 30
0.0
 11
142.8750008171159
 21
142.0000004060381
 31
0.0
  0
LINE
  5
4E5
330
4B0
100
AcDbEntity
  8
外形線
100
AcDbLine
 10
22.85871767452444
 20
144.3000004060381
 30
0.0
 11
18.87500081711596
 21
142.0000004060381
 31
0.0
  0
LINE
  5
4E6
330
4B0
100
AcDbEntity
  8
外形線
100
AcDbLine
 10
11.87500081711596
 20
139.700000406038
 30
0.0
 11
39.87500081711596
 21
139.700000406038
 31
0.0
  0
LINE
  5
4E7
330
4B0
100
AcDbEntity
  8
外形線
100
AcDbLine
 10
11.87500081711596
 20
139.700000406038
 30
0.0
 11
15.8587176745244
 21
142.0000004060381
 31
0.0
  0
LINE
  5
4E8
330
4B0
100
AcDbEntity
  8
外形線
100
AcDbLine
 10
39.87500081711596
 20
139.700000406038
 30
0.0
 11
39.87500081711596
 21
142.0000004060381
 31
0.0
  0
LINE
  5
4E9
330
4B0
100
AcDbEntity
  8
外形線
100
AcDbLine
 10
142.8750008171159
 20
142.0000004060381
 30
0.0
 11
142.8750008171159
 21
144.3000004060381
 31
0.0
  0
LINE
  5
4EA
330
4B0
100
AcDbEntity
  8
隠線
100
AcDbLine
 10
88.77449575372763
 20
432.2000004060381
 30
0.0
 11
64.87500081711596
 21
432.2000004060381
 31
0.0
  0
LINE
  5
4EB
330
4B0
100
AcDbEntity
  8
外形線
100
AcDbLine
 10
142.8750008171159
 20
442.400000406038
 30
0.0
 11
39.87500081711596
 21
442.400000406038
 31
0.0
  0
LINE
  5
4EC
330
4B0
100
AcDbEntity
  8
外形線
100
AcDbLine
 10
22.85871767452444
 20
440.100000406038
 30
0.0
 11
142.8750008171159
 21
440.1000004060381
 31
0.0
  0
DIMENSION
  5
4ED
330
4B0
100
AcDbEntity
  8
寸法線
  6
CONTINUOUS
100
AcDbDimension
  2
*D17
 10
6.62500081711596
 20
456.7000004060381
 30
0.0
 11
4.750000817115882
 21
450.7000004060381
 31
0.0
 12
-38.12499918288404
 22
-17.99999959396188
 32
0.0
  3
ISO-25
100
AcDbAlignedDimension
 13
6.625000817115967
 23
444.7000004060381
 33
0.0
 14
26.37500081711596
 24
456.7000004060381
 34
0.0
 50
90.0
100
AcDbRotatedDimension
  0
LINE
  5
4EE
330
4B0
100
AcDbEntity
  8
外形線
100
AcDbLine
 10
39.87500081711596
 20
442.400000406038
 30
0.0
 11
15.8587176745244
 21
442.400000406038
 31
0.0
  0
LINE
  5
4EF
330
4B0
100
AcDbEntity
  8
外形線
100
AcDbLine
 10
11.87500081711596
 20
444.7000004060381
 30
0.0
 11
39.87500081711596
 21
444.7000004060381
 31
0.0
  0
LINE
  5
4F0
330
4B0
100
AcDbEntity
  8
外形線
100
AcDbLine
 10
22.85871767452444
 20
440.100000406038
 30
0.0
 11
18.87500081711596
 21
442.400000406038
 31
0.0
  0
LINE
  5
4F1
330
4B0
100
AcDbEntity
  8
外形線
100
AcDbLine
 10
11.87500081711596
 20
444.7000004060381
 30
0.0
 11
15.8587176745244
 21
442.400000406038
 31
0.0
  0
LINE
  5
4F2
330
4B0
100
AcDbEntity
  8
外形細線
100
AcDbLine
 10
31.37500081711596
 20
456.7000004060381
 30
0.0
 11
31.37500081711596
 21
444.7000004060381
 31
0.0
  0
LINE
  5
4F3
330
4B0
100
AcDbEntity
  8
外形細線
100
AcDbLine
 10
26.37500081711596
 20
456.7000004060381
 30
0.0
 11
26.37500081711596
 21
444.7000004060381
 31
0.0
  0
LINE
  5
4F4
330
4B0
100
AcDbEntity
  8
外形線
100
AcDbLine
 10
31.87500081711596
 20
456.4113252714433
 30
0.0
 11
31.87500081711596
 21
444.700000406038
 31
0.0
  0
LINE
  5
4F5
330
4B0
100
AcDbEntity
  8
外形線
100
AcDbLine
 10
25.87500081711596
 20
444.7000004060381
 30
0.0
 11
25.87500081711596
 21
456.4113252714433
 31
0.0
  0
LINE
  5
4F6
330
4B0
100
AcDbEntity
  8
外形線
100
AcDbLine
 10
39.87500081711596
 20
444.7000004060381
 30
0.0
 11
39.87500081711596
 21
442.400000406038
 31
0.0
  0
LINE
  5
4F7
330
4B0
100
AcDbEntity
  8
外形線
100
AcDbLine
 10
142.8750008171159
 20
440.1000004060381
 30
0.0
 11
142.8750008171159
 21
442.400000406038
 31
0.0
  0
ENDBLK
  5
4F9
330
4B0
100
AcDbEntity
  8
0
100
AcDbBlockEnd
  0
BLOCK
  5
55F
330
55C
100
AcDbEntity
  8
0
100
AcDbBlockBegin
  2
TAPF08N
 70
     0
 10
0.0
 20
0.0
 30
0.0
  3
TAPF08N
  1

  0
CIRCLE
  5
55D
330
55C
100
AcDbEntity
  8
0
  6
BYBLOCK
 62
     7
100
AcDbCircle
 10
0.0000341022967518
 20
0.0000034482758764
 30
0.0
 40
4.0
  0
CIRCLE
  5
55E
330
55C
100
AcDbEntity
  8
0
  6
BYBLOCK
 62
     0
100
AcDbCircle
 10
0.0000341022967518
 20
0.0000034482758764
 30
0.0
 40
3.299999999999999
  0
ENDBLK
  5
560
330
55C
100
AcDbEntity
  8
0
100
AcDbBlockEnd
  0
BLOCK
  5
5AD
330
5A4
100
AcDbEntity
  8
0
100
AcDbBlockBegin
  2
A$C1FDB40F3
 70
     0
 10
0.0
 20
0.0
 30
0.0
  3
A$C1FDB40F3
  1

  0
LINE
  5
5A5
330
5A4
100
AcDbEntity
  8
外形細線
100
AcDbLine
 10
31.99999900145366
 20
0.699999757344699
 30
0.0
 11
-0.0000009985463407
 21
0.699999757344699
 31
0.0
  0
LINE
  5
5A6
330
5A4
100
AcDbEntity
  8
外形細線
100
AcDbLine
 10
-0.0000009985463407
 20
7.299999756992292
 30
0.0
 11
31.99999900145366
 21
7.299999756992292
 31
0.0
  0
LINE
  5
5A7
330
5A4
100
AcDbEntity
  8
外形線
100
AcDbLine
 10
30.78756343610206
 20
-0.0000002426861556
 30
0.0
 11
-0.0000009985463407
 21
-0.0000002426861556
 31
0.0
  0
LINE
  5
5A8
330
5A4
100
AcDbEntity
  8
外形線
100
AcDbLine
 10
-0.0000009985463407
 20
7.99999975702309
 30
0.0
 11
30.78756343610206
 21
7.99999975702309
 31
0.0
  0
LINE
  5
5A9
330
5A4
100
AcDbEntity
  8
外形線
100
AcDbLine
 10
30.78756343610206
 20
7.99999975702309
 30
0.0
 11
31.99999900145366
 21
7.299999756992292
 31
0.0
  0
LINE
  5
5AA
330
5A4
100
AcDbEntity
  8
外形細線
100
AcDbLine
 10
30.78756343610206
 20
7.99999975702309
 30
0.0
 11
30.78756343610206
 21
-0.0000002426861556
 31
0.0
  0
LINE
  5
5AB
330
5A4
100
AcDbEntity
  8
外形線
100
AcDbLine
 10
31.99999900145366
 20
0.699999757344699
 30
0.0
 11
30.78756343610206
 21
-0.0000002426861556
 31
0.0
  0
LINE
  5
5AC
330
5A4
100
AcDbEntity
  8
外形線
100
AcDbLine
 10
31.99999900145366
 20
7.299999756992292
 30
0.0
 11
31.99999900145366
 21
0.699999757344699
 31
0.0
  0
ENDBLK
  5
5AE
330
5A4
100
AcDbEntity
  8
0
100
AcDbBlockEnd
  0
BLOCK
  5
685
330
67B
100
AcDbEntity
  8
0
100
AcDbBlockBegin
  2
*D22
 70
     1
 10
0.0
 20
0.0
 30
0.0
  3
*D22
  1

  0
LINE
  5
8BC
330
67B
100
AcDbEntity
  8
寸法線
 62
     0
100
AcDbLine
 10
177.7499999999989
 20
888.5000000000008
 30
0.0
 11
177.7499999999989
 21
855.5645761778631
 31
0.0
  0
LINE
  5
8BD
330
67B
100
AcDbEntity
  8
寸法線
 62
     0
100
AcDbLine
 10
287.2499999999989
 20
888.5000000000008
 30
0.0
 11
287.2499999999989
 21
855.5645761778631
 31
0.0
  0
LINE
  5
8BE
330
67B
100
AcDbEntity
  8
寸法線
 62
     0
100
AcDbLine
 10
185.2499999999989
 20
859.3145761778631
 30
0.0
 11
279.7499999999989
 21
859.3145761778631
 31
0.0
  0
SOLID
  5
8BF
330
67B
100
AcDbEntity
  8
寸法線
 62
     0
100
AcDbTrace
 10
185.2499999999989
 20
860.564576177863
 30
0.0
 11
185.2499999999989
 21
858.064576177863
 31
0.0
 12
177.7499999999989
 22
859.3145761778631
 32
0.0
 13
177.7499999999989
 23
859.3145761778631
 33
0.0
  0
SOLID
  5
8C0
330
67B
100
AcDbEntity
  8
寸法線
 62
     0
100
AcDbTrace
 10
279.7499999999989
 20
860.564576177863
 30
0.0
 11
279.7499999999989
 21
858.064576177863
 31
0.0
 12
287.2499999999989
 22
859.3145761778631
 32
0.0
 13
287.2499999999989
 23
859.3145761778631
 33
0.0
  0
MTEXT
  5
8C1
330
67B
100
AcDbEntity
  8
寸法線
 62
     0
100
AcDbMText
 10
232.4999999999989
 20
864.9395761778631
 30
0.0
 40
7.5
 41
0.0
 71
     5
 72
     1
  1
109.5
1001
ACAD
1000
MTEXTBEGIN
1070
    73
1070
     1
1070
    44
1040
1.0
1070
    74
1070
     0
1000
MTEXTEND
  0
POINT
  5
8C2
330
67B
100
AcDbEntity
  8
DEFPOINTS
 62
     0
100
AcDbPoint
 10
177.7499999999989
 20
890.0000000000009
 30
0.0
  0
POINT
  5
8C3
330
67B
100
AcDbEntity
  8
DEFPOINTS
 62
     0
100
AcDbPoint
 10
287.2499999999989
 20
890.0000000000009
 30
0.0
  0
POINT
  5
8C4
330
67B
100
AcDbEntity
  8
DEFPOINTS
 62
     0
100
AcDbPoint
 10
287.2499999999989
 20
859.3145761778631
 30
0.0
  0
ENDBLK
  5
686
330
67B
100
AcDbEntity
  8
0
100
AcDbBlockEnd
  0
BLOCK
  5
692
330
688
100
AcDbEntity
  8
0
100
AcDbBlockBegin
  2
*D23
 70
     1
 10
0.0
 20
0.0
 30
0.0
  3
*D23
  1

  0
LINE
  5
8C5
330
688
100
AcDbEntity
  8
寸法線
 62
     0
100
AcDbLine
 10
288.749999999999
 20
950.0000000000008
 30
0.0
 11
301.899780839172
 21
950.0000000000008
 31
0.0
  0
LINE
  5
8C6
330
688
100
AcDbEntity
  8
寸法線
 62
     0
100
AcDbLine
 10
288.749999999999
 20
890.0000000000009
 30
0.0
 11
301.8997808391719
 21
890.0000000000009
 31
0.0
  0
LINE
  5
8C7
330
688
100
AcDbEntity
  8
寸法線
 62
     0
100
AcDbLine
 10
298.149780839172
 20
942.5000000000009
 30
0.0
 11
298.149780839172
 21
897.5000000000008
 31
0.0
  0
LINE
  5
8C8
330
688
100
AcDbEntity
  8
寸法線
 62
     0
100
AcDbLine
 10
298.1497808391719
 20
890.0000000000009
 30
0.0
 11
298.1497808391719
 21
864.6870945775521
 31
0.0
  0
SOLID
  5
8C9
330
688
100
AcDbEntity
  8
寸法線
 62
     0
100
AcDbTrace
 10
296.899780839172
 20
942.5000000000009
 30
0.0
 11
299.399780839172
 21
942.5000000000009
 31
0.0
 12
298.149780839172
 22
950.0000000000008
 32
0.0
 13
298.149780839172
 23
950.0000000000008
 33
0.0
  0
SOLID
  5
8CA
330
688
100
AcDbEntity
  8
寸法線
 62
     0
100
AcDbTrace
 10
296.899780839172
 20
897.5000000000008
 30
0.0
 11
299.399780839172
 21
897.5000000000008
 31
0.0
 12
298.1497808391719
 22
890.0000000000009
 32
0.0
 13
298.1497808391719
 23
890.0000000000009
 33
0.0
  0
MTEXT
  5
8CB
330
688
100
AcDbEntity
  8
寸法線
 62
     0
100
AcDbMText
 10
292.5247808391718
 20
870.9144567822766
 30
0.0
 40
7.5
 41
0.0
 71
     5
 72
     1
  1
60
 11
0.0000000000000001
 21
1.0
 31
0.0
1001
ACAD
1000
MTEXTBEGIN
1070
    73
1070
     1
1070
    44
1040
1.0
1070
    74
1070
     0
1000
MTEXTEND
  0
POINT
  5
8CC
330
688
100
AcDbEntity
  8
DEFPOINTS
 62
     0
100
AcDbPoint
 10
287.2499999999989
 20
950.0000000000008
 30
0.0
  0
POINT
  5
8CD
330
688
100
AcDbEntity
  8
DEFPOINTS
 62
     0
100
AcDbPoint
 10
287.2499999999989
 20
890.0000000000009
 30
0.0
  0
POINT
  5
8CE
330
688
100
AcDbEntity
  8
DEFPOINTS
 62
     0
100
AcDbPoint
 10
298.1497808391719
 20
890.0000000000009
 30
0.0
  0
ENDBLK
  5
693
330
688
100
AcDbEntity
  8
0
100
AcDbBlockEnd
  0
BLOCK
  5
6AB
330
69F
100
AcDbEntity
  8
0
100
AcDbBlockBegin
  2
*D24
 70
     1
 10
0.0
 20
0.0
 30
0.0
  3
*D24
  1

  0
LINE
  5
8D8
330
69F
100
AcDbEntity
  8
寸法線
 62
     0
100
AcDbLine
 10
106.0
 20
950.0000000000008
 30
0.0
 11
113.5076882096791
 21
950.0000000000008
 31
0.0
  0
LINE
  5
8D9
330
69F
100
AcDbEntity
  8
寸法線
 62
     0
100
AcDbLine
 10
106.0
 20
940.0000000000009
 30
0.0
 11
113.5076882096791
 21
940.0000000000009
 31
0.0
  0
LINE
  5
8DA
330
69F
100
AcDbEntity
  8
寸法線
 62
     0
100
AcDbLine
 10
109.7576882096791
 20
957.5000000000009
 30
0.0
 11
109.7576882096791
 21
965.0000000000009
 31
0.0
  0
LINE
  5
8DB
330
69F
100
AcDbEntity
  8
寸法線
 62
     0
100
AcDbLine
 10
109.7576882096791
 20
932.5000000000009
 30
0.0
 11
109.7576882096791
 21
914.4940944881899
 31
0.0
  0
LINE
  5
8DC
330
69F
100
AcDbEntity
  8
寸法線
 62
     0
100
AcDbLine
 10
109.7576882096791
 20
950.0000000000008
 30
0.0
 11
109.7576882096791
 21
940.0000000000009
 31
0.0
  0
SOLID
  5
8DD
330
69F
100
AcDbEntity
  8
寸法線
 62
     0
100
AcDbTrace
 10
108.5076882096791
 20
957.5000000000009
 30
0.0
 11
111.0076882096791
 21
957.5000000000009
 31
0.0
 12
109.7576882096791
 22
950.0000000000008
 32
0.0
 13
109.7576882096791
 23
950.0000000000008
 33
0.0
  0
SOLID
  5
8DE
330
69F
100
AcDbEntity
  8
寸法線
 62
     0
100
AcDbTrace
 10
108.5076882096791
 20
932.5000000000009
 30
0.0
 11
111.0076882096791
 21
932.5000000000009
 31
0.0
 12
109.7576882096791
 22
940.0000000000009
 32
0.0
 13
109.7576882096791
 23
940.0000000000009
 33
0.0
  0
MTEXT
  5
8DF
330
69F
100
AcDbEntity
  8
寸法線
 62
     0
100
AcDbMText
 10
104.1326882096789
 20
919.7470472440953
 30
0.0
 40
7.5
 41
0.0
 71
     5
 72
     1
  1
10
 11
0.0000000000000001
 21
1.0
 31
0.0
1001
ACAD
1000
MTEXTBEGIN
1070
    73
1070
     1
1070
    44
1040
1.0
1070
    74
1070
     0
1000
MTEXTEND
  0
POINT
  5
8E0
330
69F
100
AcDbEntity
  8
DEFPOINTS
 62
     0
100
AcDbPoint
 10
104.4999999999999
 20
950.0000000000008
 30
0.0
  0
POINT
  5
8E1
330
69F
100
AcDbEntity
  8
DEFPOINTS
 62
     0
100
AcDbPoint
 10
104.4999999999999
 20
940.0000000000009
 30
0.0
  0
POINT
  5
8E2
330
69F
100
AcDbEntity
  8
DEFPOINTS
 62
     0
100
AcDbPoint
 10
109.7576882096791
 20
940.0000000000009
 30
0.0
  0
ENDBLK
  5
6AC
330
69F
100
AcDbEntity
  8
0
100
AcDbBlockEnd
  0
BLOCK
  5
6B8
330
6AE
100
AcDbEntity
  8
0
100
AcDbBlockBegin
  2
*D25
 70
     1
 10
0.0
 20
0.0
 30
0.0
  3
*D25
  1

  0
LINE
  5
CD0
330
6AE
100
AcDbEntity
  8
寸法線
 62
     0
100
AcDbLine
 10
98.50000000000001
 20
840.0000000000009
 30
0.0
 11
65.45837436458272
 21
840.0000000000009
 31
0.0
  0
LINE
  5
CD1
330
6AE
100
AcDbEntity
  8
寸法線
 62
     0
100
AcDbLine
 10
98.50000000000001
 20
890.0000000000009
 30
0.0
 11
65.45837436458274
 21
890.0000000000009
 31
0.0
  0
LINE
  5
CD2
330
6AE
100
AcDbEntity
  8
寸法線
 62
     0
100
AcDbLine
 10
69.20837436458272
 20
847.5000000000008
 30
0.0
 11
69.20837436458274
 21
882.5000000000009
 31
0.0
  0
SOLID
  5
CD3
330
6AE
100
AcDbEntity
  8
寸法線
 62
     0
100
AcDbTrace
 10
67.95837436458272
 20
847.5000000000008
 30
0.0
 11
70.45837436458272
 21
847.5000000000008
 31
0.0
 12
69.20837436458272
 22
840.0000000000009
 32
0.0
 13
69.20837436458272
 23
840.0000000000009
 33
0.0
  0
SOLID
  5
CD4
330
6AE
100
AcDbEntity
  8
寸法線
 62
     0
100
AcDbTrace
 10
67.95837436458274
 20
882.5000000000009
 30
0.0
 11
70.45837436458274
 21
882.5000000000009
 31
0.0
 12
69.20837436458274
 22
890.0000000000009
 32
0.0
 13
69.20837436458274
 23
890.0000000000009
 33
0.0
  0
MTEXT
  5
CD5
330
6AE
100
AcDbEntity
  8
寸法線
 62
     0
100
AcDbMText
 10
63.58337436458259
 20
869.2128685560556
 30
0.0
 40
7.5
 41
0.0
 71
     5
 72
     1
  1
50
 11
0.0000000000000001
 21
1.0
 31
0.0
1001
ACAD
1000
MTEXTBEGIN
1070
    73
1070
     1
1070
    44
1040
1.0
1070
    74
1070
     0
1000
MTEXTEND
  0
POINT
  5
CD6
330
6AE
100
AcDbEntity
  8
DEFPOINTS
 62
     0
100
AcDbPoint
 10
100.0
 20
840.0000000000009
 30
0.0
  0
POINT
  5
CD7
330
6AE
100
AcDbEntity
  8
DEFPOINTS
 62
     0
100
AcDbPoint
 10
100.0
 20
890.0000000000009
 30
0.0
  0
POINT
  5
CD8
330
6AE
100
AcDbEntity
  8
DEFPOINTS
 62
     0
100
AcDbPoint
 10
69.20837436458274
 20
890.0000000000009
 30
0.0
  0
ENDBLK
  5
6B9
330
6AE
100
AcDbEntity
  8
0
100
AcDbBlockEnd
  0
BLOCK
  5
6C5
330
6BB
100
AcDbEntity
  8
0
100
AcDbBlockBegin
  2
*D26
 70
     1
 10
0.0
 20
0.0
 30
0.0
  3
*D26
  1

  0
LINE
  5
8E3
330
6BB
100
AcDbEntity
  8
寸法線
 62
     0
100
AcDbLine
 10
264.0000000002903
 20
950.0000000000008
 30
0.0
 11
248.3770537192917
 21
950.000000000001
 31
0.0
  0
LINE
  5
8E4
330
6BB
100
AcDbEntity
  8
寸法線
 62
     0
100
AcDbLine
 10
264.7000000003212
 20
915.0000000000009
 30
0.0
 11
248.3770537192917
 21
915.0000000000011
 31
0.0
  0
LINE
  5
8E5
330
6BB
100
AcDbEntity
  8
寸法線
 62
     0
100
AcDbLine
 10
252.1270537192918
 20
942.5000000000009
 30
0.0
 11
252.1270537192918
 21
922.500000000001
 31
0.0
  0
SOLID
  5
8E6
330
6BB
100
AcDbEntity
  8
寸法線
 62
     0
100
AcDbTrace
 10
250.8770537192917
 20
942.5000000000009
 30
0.0
 11
253.3770537192917
 21
942.5000000000009
 31
0.0
 12
252.1270537192918
 22
950.000000000001
 32
0.0
 13
252.1270537192918
 23
950.000000000001
 33
0.0
  0
SOLID
  5
8E7
330
6BB
100
AcDbEntity
  8
寸法線
 62
     0
100
AcDbTrace
 10
250.8770537192917
 20
922.500000000001
 30
0.0
 11
253.3770537192917
 21
922.500000000001
 31
0.0
 12
252.1270537192918
 22
915.0000000000011
 32
0.0
 13
252.1270537192918
 23
915.0000000000011
 33
0.0
  0
MTEXT
  5
8E8
330
6BB
100
AcDbEntity
  8
寸法線
 62
     0
100
AcDbMText
 10
246.5020537192916
 20
932.5000000000009
 30
0.0
 40
7.5
 41
0.0
 71
     5
 72
     1
  1
35
 11
0.0000000000000001
 21
1.0
 31
0.0
1001
ACAD
1000
MTEXTBEGIN
1070
    73
1070
     1
1070
    44
1040
1.0
1070
    74
1070
     0
1000
MTEXTEND
  0
POINT
  5
8E9
330
6BB
100
AcDbEntity
  8
DEFPOINTS
 62
     0
100
AcDbPoint
 10
265.5000000002903
 20
950.0000000000008
 30
0.0
  0
POINT
  5
8EA
330
6BB
100
AcDbEntity
  8
DEFPOINTS
 62
     0
100
AcDbPoint
 10
266.2000000003212
 20
915.0000000000009
 30
0.0
  0
POINT
  5
8EB
330
6BB
100
AcDbEntity
  8
DEFPOINTS
 62
     0
100
AcDbPoint
 10
252.1270537192918
 20
915.0000000000011
 30
0.0
  0
ENDBLK
  5
6C6
330
6BB
100
AcDbEntity
  8
0
100
AcDbBlockEnd
  0
BLOCK
  5
6D8
330
6D2
100
AcDbEntity
  8
0
100
AcDbBlockBegin
  2
*D27
 70
     1
 10
0.0
 20
0.0
 30
0.0
  3
*D27
  1

  0
LINE
  5
6D3
330
6D2
100
AcDbEntity
  8
寸法線
 62
     0
100
AcDbLine
 10
295.0000000000006
 20
495.0000000000016
 30
0.0
 11
362.4332820042667
 21
669.9542868241103
 31
0.0
  0
SOLID
  5
6D4
330
6D2
100
AcDbEntity
  8
寸法線
 62
     0
100
AcDbTrace
 10
361.2669200921059
 20
670.4038420374721
 30
0.0
 11
363.5996439164273
 21
669.5047316107486
 31
0.0
 12
365.1306132844372
 22
676.9524582970746
 32
0.0
 13
365.1306132844372
 23
676.9524582970746
 33
0.0
  0
MTEXT
  5
6D5
330
6D2
100
AcDbEntity
  8
寸法線
 62
     0
100
AcDbMText
 10
326.4996614856845
 20
592.365694139185
 30
0.0
 40
7.5
 41
0.0
 71
     5
 72
     1
  1
R195
 11
0.3596441706894227
 21
0.9330895297285879
 31
0.0
1001
ACAD
1000
MTEXTBEGIN
1070
    73
1070
     1
1070
    44
1040
1.0
1070
    74
1070
     0
1000
MTEXTEND
  0
POINT
  5
6D6
330
6D2
100
AcDbEntity
  8
DEFPOINTS
 62
     0
100
AcDbPoint
 10
365.1306132844372
 20
676.9524582970746
 30
0.0
  0
POINT
  5
6D7
330
6D2
100
AcDbEntity
  8
DEFPOINTS
 62
     0
100
AcDbPoint
 10
295.0000000000006
 20
495.0000000000016
 30
0.0
  0
ENDBLK
  5
6D9
330
6D2
100
AcDbEntity
  8
0
100
AcDbBlockEnd
  0
BLOCK
  5
6E1
330
6DB
100
AcDbEntity
  8
0
100
AcDbBlockBegin
  2
*D28
 70
     1
 10
0.0
 20
0.0
 30
0.0
  3
*D28
  1

  0
LINE
  5
CB0
330
6DB
100
AcDbEntity
  8
寸法線
 62
     0
100
AcDbLine
 10
295.0000000000006
 20
394.9999999999998
 30
0.0
 11
377.641408656141
 21
478.5263286355187
 31
0.0
  0
SOLID
  5
CB1
330
6DB
100
AcDbEntity
  8
寸法線
 62
     0
100
AcDbTrace
 10
376.7528306919334
 20
479.4054925573925
 30
0.0
 11
378.5299866203487
 21
477.6471647136449
 31
0.0
 12
382.916392187384
 22
483.8577964207646
 32
0.0
 13
382.916392187384
 23
483.8577964207646
 33
0.0
  0
MTEXT
  5
CB2
330
6DB
100
AcDbEntity
  8
寸法線
 62
     0
100
AcDbMText
 10
355.8385635583849
 20
464.4887246487966
 30
0.0
 40
7.5
 41
0.0
 71
     5
 72
     1
  1
R125
 11
0.7033311374990698
 21
0.7108623713661208
 31
0.0
1001
ACAD
1000
MTEXTBEGIN
1070
    73
1070
     1
1070
    44
1040
1.0
1070
    74
1070
     0
1000
MTEXTEND
  0
POINT
  5
CB3
330
6DB
100
AcDbEntity
  8
DEFPOINTS
 62
     0
100
AcDbPoint
 10
382.916392187384
 20
483.8577964207646
 30
0.0
  0
POINT
  5
CB4
330
6DB
100
AcDbEntity
  8
DEFPOINTS
 62
     0
100
AcDbPoint
 10
295.0000000000006
 20
394.9999999999998
 30
0.0
  0
ENDBLK
  5
6E2
330
6DB
100
AcDbEntity
  8
0
100
AcDbBlockEnd
  0
BLOCK
  5
6EE
330
6E8
100
AcDbEntity
  8
0
100
AcDbBlockBegin
  2
*D29
 70
     1
 10
0.0
 20
0.0
 30
0.0
  3
*D29
  1

  0
LINE
  5
6E9
330
6E8
100
AcDbEntity
  8
寸法線
 62
     0
100
AcDbLine
 10
294.9999999999997
 20
494.9999999999999
 30
0.0
 11
336.2210172813295
 21
508.8952414261978
 31
0.0
  0
SOLID
  5
6EA
330
6E8
100
AcDbEntity
  8
寸法線
 62
     0
100
AcDbTrace
 10
335.8217287345997
 20
510.0797534170404
 30
0.0
 11
336.6203058280593
 21
507.7107294353549
 31
0.0
 12
343.3280892263863
 22
511.2909727065766
 32
0.0
 13
343.3280892263863
 23
511.2909727065766
 33
0.0
  0
MTEXT
  5
6EB
330
6E8
100
AcDbEntity
  8
寸法線
 62
     0
100
AcDbMText
 10
318.5401720813759
 20
508.8711732993533
 30
0.0
 40
7.5
 41
0.0
 71
     5
 72
     1
  1
R51
 11
0.9476095926742447
 21
0.3194308373838568
 31
0.0
1001
ACAD
1000
MTEXTBEGIN
1070
    73
1070
     1
1070
    44
1040
1.0
1070
    74
1070
     0
1000
MTEXTEND
  0
POINT
  5
6EC
330
6E8
100
AcDbEntity
  8
DEFPOINTS
 62
     0
100
AcDbPoint
 10
343.3280892263863
 20
511.2909727065766
 30
0.0
  0
POINT
  5
6ED
330
6E8
100
AcDbEntity
  8
DEFPOINTS
 62
     0
100
AcDbPoint
 10
294.9999999999997
 20
494.9999999999999
 30
0.0
  0
ENDBLK
  5
6EF
330
6E8
100
AcDbEntity
  8
0
100
AcDbBlockEnd
  0
BLOCK
  5
6FA
330
6F3
100
AcDbEntity
  8
0
100
AcDbBlockBegin
  2
*D30
 70
     1
 10
0.0
 20
0.0
 30
0.0
  3
*D30
  1

  0
LINE
  5
BAB
330
6F3
100
AcDbEntity
  8
寸法線
 62
     0
100
AcDbLine
 10
378.430455482022
 20
475.0705502191392
 30
0.0
 11
461.5695445179779
 21
514.9294497808607
 31
0.0
  0
SOLID
  5
BAC
330
6F3
100
AcDbEntity
  8
寸法線
 62
     0
100
AcDbTrace
 10
377.8900690996777
 20
476.197707066156
 30
0.0
 11
378.9708418643664
 21
473.9433933721224
 31
0.0
 12
371.6675143999215
 22
471.8282319250729
 32
0.0
 13
371.6675143999215
 23
471.8282319250729
 33
0.0
  0
SOLID
  5
BAD
330
6F3
100
AcDbEntity
  8
寸法線
 62
     0
100
AcDbTrace
 10
461.0291581356335
 20
516.0566066278774
 30
0.0
 11
462.1099309003223
 21
513.802292933844
 31
0.0
 12
468.3324856000785
 22
518.1717680749271
 32
0.0
 13
468.3324856000785
 23
518.1717680749271
 33
0.0
  0
MTEXT
  5
BAE
330
6F3
100
AcDbEntity
  8
寸法線
 62
     0
100
AcDbMText
 10
439.0404484946608
 20
510.3673127766638
 30
0.0
 40
7.5
 41
0.0
 71
     5
 72
     1
  1
外径\U+2205107.2
 11
0.9017254776134041
 21
0.4323091058755046
 31
0.0
1001
ACAD
1000
MTEXTBEGIN
1070
    73
1070
     1
1070
    44
1040
1.0
1070
    74
1070
     0
1000
MTEXTEND
  0
POINT
  5
BAF
330
6F3
100
AcDbEntity
  8
DEFPOINTS
 62
     0
100
AcDbPoint
 10
468.3324856000785
 20
518.1717680749271
 30
0.0
  0
POINT
  5
BB0
330
6F3
100
AcDbEntity
  8
DEFPOINTS
 62
     0
100
AcDbPoint
 10
371.6675143999215
 20
471.8282319250729
 30
0.0
  0
ENDBLK
  5
6FB
330
6F3
100
AcDbEntity
  8
0
100
AcDbBlockEnd
  0
BLOCK
  5
712
330
706
100
AcDbEntity
  8
0
100
AcDbBlockBegin
  2
*D31
 70
     1
 10
0.0
 20
0.0
 30
0.0
  3
*D31
  1

  0
LINE
  5
714
330
706
100
AcDbEntity
  8
寸法線
 62
     0
100
AcDbLine
 10
491.0
 20
433.4999999999999
 30
0.0
 11
491.0
 21
393.4052873308094
 31
0.0
  0
LINE
  5
715
330
706
100
AcDbEntity
  8
寸法線
 62
     0
100
AcDbLine
 10
480.5397531527947
 20
433.4999999999999
 30
0.0
 11
480.5397531527947
 21
393.4052873308094
 31
0.0
  0
LINE
  5
716
330
706
100
AcDbEntity
  8
寸法線
 62
     0
100
AcDbLine
 10
473.0397531527946
 20
397.1552873308094
 30
0.0
 11
465.5397531527946
 21
397.1552873308094
 31
0.0
  0
LINE
  5
717
330
706
100
AcDbEntity
  8
寸法線
 62
     0
100
AcDbLine
 10
498.5
 20
397.1552873308094
 30
0.0
 11
524.3106601717797
 21
397.1552873308094
 31
0.0
  0
LINE
  5
718
330
706
100
AcDbEntity
  8
寸法線
 62
     0
100
AcDbLine
 10
480.5397531527947
 20
397.1552873308094
 30
0.0
 11
491.0
 21
397.1552873308094
 31
0.0
  0
SOLID
  5
719
330
706
100
AcDbEntity
  8
寸法線
 62
     0
100
AcDbTrace
 10
473.0397531527946
 20
398.4052873308094
 30
0.0
 11
473.0397531527946
 21
395.9052873308094
 31
0.0
 12
480.5397531527947
 22
397.1552873308094
 32
0.0
 13
480.5397531527947
 23
397.1552873308094
 33
0.0
  0
SOLID
  5
71A
330
706
100
AcDbEntity
  8
寸法線
 62
     0
100
AcDbTrace
 10
498.5
 20
398.4052873308094
 30
0.0
 11
498.5
 21
395.9052873308094
 31
0.0
 12
491.0
 22
397.1552873308094
 32
0.0
 13
491.0
 23
397.1552873308094
 33
0.0
  0
MTEXT
  5
71B
330
706
100
AcDbEntity
  8
寸法線
 62
     0
100
AcDbMText
 10
515.1553300858899
 20
402.7802873308094
 30
0.0
 40
7.5
 41
0.0
 71
     5
 72
     1
  1
10.5
1001
ACAD
1000
MTEXTBEGIN
1070
    73
1070
     1
1070
    44
1040
1.0
1070
    74
1070
     0
1000
MTEXTEND
  0
POINT
  5
71C
330
706
100
AcDbEntity
  8
DEFPOINTS
 62
     0
100
AcDbPoint
 10
491.0
 20
435.0
 30
0.0
  0
POINT
  5
71D
330
706
100
AcDbEntity
  8
DEFPOINTS
 62
     0
100
AcDbPoint
 10
480.5397531527947
 20
434.9999999999999
 30
0.0
  0
POINT
  5
71E
330
706
100
AcDbEntity
  8
DEFPOINTS
 62
     0
100
AcDbPoint
 10
480.5397531527947
 20
397.1552873308094
 30
0.0
  0
ENDBLK
  5
713
330
706
100
AcDbEntity
  8
0
100
AcDbBlockEnd
  0
BLOCK
  5
72B
330
721
100
AcDbEntity
  8
0
100
AcDbBlockBegin
  2
*D32
 70
     1
 10
0.0
 20
0.0
 30
0.0
  3
*D32
  1

  0
LINE
  5
722
330
721
100
AcDbEntity
  8
寸法線
 62
     0
100
AcDbLine
 10
623.5
 20
548.0
 30
0.0
 11
558.685409596249
 21
548.0
 31
0.0
  0
LINE
  5
723
330
721
100
AcDbEntity
  8
寸法線
 62
     0
100
AcDbLine
 10
623.5
 20
442.0
 30
0.0
 11
558.685409596249
 21
442.0
 31
0.0
  0
LINE
  5
724
330
721
100
AcDbEntity
  8
寸法線
 62
     0
100
AcDbLine
 10
562.4354095962489
 20
540.5
 30
0.0
 11
562.4354095962489
 21
449.5
 31
0.0
  0
SOLID
  5
725
330
721
100
AcDbEntity
  8
寸法線
 62
     0
100
AcDbTrace
 10
561.1854095962489
 20
540.5
 30
0.0
 11
563.6854095962489
 21
540.5
 31
0.0
 12
562.4354095962489
 22
548.0
 32
0.0
 13
562.4354095962489
 23
548.0
 33
0.0
  0
SOLID
  5
726
330
721
100
AcDbEntity
  8
寸法線
 62
     0
100
AcDbTrace
 10
561.1854095962489
 20
449.5
 30
0.0
 11
563.6854095962489
 21
449.5
 31
0.0
 12
562.4354095962489
 22
442.0
 32
0.0
 13
562.4354095962489
 23
442.0
 33
0.0
  0
MTEXT
  5
727
330
721
100
AcDbEntity
  8
寸法線
 62
     0
100
AcDbMText
 10
556.8104095962488
 20
495.0000000000001
 30
0.0
 40
7.5
 41
0.0
 71
     5
 72
     1
  1
106
 11
0.0000000000000001
 21
1.0
 31
0.0
1001
ACAD
1000
MTEXTBEGIN
1070
    73
1070
     1
1070
    44
1040
1.0
1070
    74
1070
     0
1000
MTEXTEND
  0
POINT
  5
728
330
721
100
AcDbEntity
  8
DEFPOINTS
 62
     0
100
AcDbPoint
 10
625.0
 20
548.0
 30
0.0
  0
POINT
  5
729
330
721
100
AcDbEntity
  8
DEFPOINTS
 62
     0
100
AcDbPoint
 10
625.0
 20
442.0
 30
0.0
  0
POINT
  5
72A
330
721
100
AcDbEntity
  8
DEFPOINTS
 62
     0
100
AcDbPoint
 10
562.4354095962489
 20
442.0
 30
0.0
  0
ENDBLK
  5
72C
330
721
100
AcDbEntity
  8
0
100
AcDbBlockEnd
  0
BLOCK
  5
738
330
72E
100
AcDbEntity
  8
0
100
AcDbBlockBegin
  2
*D33
 70
     1
 10
0.0
 20
0.0
 30
0.0
  3
*D33
  1

  0
LINE
  5
72F
330
72E
100
AcDbEntity
  8
寸法線
 62
     0
100
AcDbLine
 10
608.4999999999999
 20
555.0
 30
0.0
 11
533.0588085654967
 21
555.0
 31
0.0
  0
LINE
  5
730
330
72E
100
AcDbEntity
  8
寸法線
 62
     0
100
AcDbLine
 10
608.4999999999999
 20
435.0
 30
0.0
 11
533.0588085654967
 21
435.0
 31
0.0
  0
LINE
  5
731
330
72E
100
AcDbEntity
  8
寸法線
 62
     0
100
AcDbLine
 10
536.8088085654967
 20
547.5
 30
0.0
 11
536.8088085654967
 21
442.4999999999999
 31
0.0
  0
SOLID
  5
732
330
72E
100
AcDbEntity
  8
寸法線
 62
     0
100
AcDbTrace
 10
535.5588085654967
 20
547.5
 30
0.0
 11
538.0588085654967
 21
547.5
 31
0.0
 12
536.8088085654967
 22
555.0
 32
0.0
 13
536.8088085654967
 23
555.0
 33
0.0
  0
SOLID
  5
733
330
72E
100
AcDbEntity
  8
寸法線
 62
     0
100
AcDbTrace
 10
535.5588085654967
 20
442.4999999999999
 30
0.0
 11
538.0588085654967
 21
442.4999999999999
 31
0.0
 12
536.8088085654967
 22
435.0
 32
0.0
 13
536.8088085654967
 23
435.0
 33
0.0
  0
MTEXT
  5
734
330
72E
100
AcDbEntity
  8
寸法線
 62
     0
100
AcDbMText
 10
531.1830703765203
 20
495.0000000000001
 30
0.0
 40
7.5
 41
0.0
 71
     5
 72
     1
  1
120
 11
0.0000000000000001
 21
1.0
 31
0.0
1001
ACAD
1000
MTEXTBEGIN
1070
    73
1070
     1
1070
    44
1040
1.0
1070
    74
1070
     0
1000
MTEXTEND
  0
POINT
  5
735
330
72E
100
AcDbEntity
  8
DEFPOINTS
 62
     0
100
AcDbPoint
 10
610.0
 20
555.0
 30
0.0
  0
POINT
  5
736
330
72E
100
AcDbEntity
  8
DEFPOINTS
 62
     0
100
AcDbPoint
 10
610.0
 20
435.0
 30
0.0
  0
POINT
  5
737
330
72E
100
AcDbEntity
  8
DEFPOINTS
 62
     0
100
AcDbPoint
 10
536.8088085654967
 20
435.0
 30
0.0
  0
ENDBLK
  5
739
330
72E
100
AcDbEntity
  8
0
100
AcDbBlockEnd
  0
BLOCK
  5
745
330
73B
100
AcDbEntity
  8
0
100
AcDbBlockBegin
  2
*D34
 70
     1
 10
0.0
 20
0.0
 30
0.0
  3
*D34
  1

  0
LINE
  5
73C
330
73B
100
AcDbEntity
  8
寸法線
 62
     0
100
AcDbLine
 10
640.0
 20
433.4999999999999
 30
0.0
 11
640.0
 21
401.635382764153
 31
0.0
  0
LINE
  5
73D
330
73B
100
AcDbEntity
  8
寸法線
 62
     0
100
AcDbLine
 10
610.0
 20
433.4999999999999
 30
0.0
 11
610.0
 21
401.635382764153
 31
0.0
  0
LINE
  5
73E
330
73B
100
AcDbEntity
  8
寸法線
 62
     0
100
AcDbLine
 10
632.5
 20
405.385382764153
 30
0.0
 11
617.4999999999999
 21
405.385382764153
 31
0.0
  0
SOLID
  5
73F
330
73B
100
AcDbEntity
  8
寸法線
 62
     0
100
AcDbTrace
 10
632.5
 20
406.635382764153
 30
0.0
 11
632.5
 21
404.135382764153
 31
0.0
 12
640.0
 22
405.385382764153
 32
0.0
 13
640.0
 23
405.385382764153
 33
0.0
  0
SOLID
  5
740
330
73B
100
AcDbEntity
  8
寸法線
 62
     0
100
AcDbTrace
 10
617.4999999999999
 20
406.635382764153
 30
0.0
 11
617.4999999999999
 21
404.135382764153
 31
0.0
 12
610.0
 22
405.385382764153
 32
0.0
 13
610.0
 23
405.385382764153
 33
0.0
  0
MTEXT
  5
741
330
73B
100
AcDbEntity
  8
寸法線
 62
     0
100
AcDbMText
 10
625.0
 20
411.010382764153
 30
0.0
 40
7.5
 41
0.0
 71
     5
 72
     1
  1
30
1001
ACAD
1000
MTEXTBEGIN
1070
    73
1070
     1
1070
    44
1040
1.0
1070
    74
1070
     0
1000
MTEXTEND
  0
POINT
  5
742
330
73B
100
AcDbEntity
  8
DEFPOINTS
 62
     0
100
AcDbPoint
 10
640.0
 20
435.0
 30
0.0
  0
POINT
  5
743
330
73B
100
AcDbEntity
  8
DEFPOINTS
 62
     0
100
AcDbPoint
 10
610.0
 20
435.0
 30
0.0
  0
POINT
  5
744
330
73B
100
AcDbEntity
  8
DEFPOINTS
 62
     0
100
AcDbPoint
 10
610.0
 20
405.385382764153
 30
0.0
  0
ENDBLK
  5
746
330
73B
100
AcDbEntity
  8
0
100
AcDbBlockEnd
  0
BLOCK
  5
762
330
758
100
AcDbEntity
  8
0
100
AcDbBlockBegin
  2
CRFN04
 70
     0
 10
0.0
 20
0.0
 30
0.0
  3
CRFN04
  1

  0
CIRCLE
  5
759
330
758
100
AcDbEntity
  8
0
  6
BYBLOCK
 62
     0
100
AcDbCircle
 10
0.0
 20
0.0
 30
0.0
 40
4.0
  0
ARC
  5
75A
330
758
100
AcDbEntity
  8
0
  6
BYBLOCK
 62
     0
100
AcDbCircle
 10
2.30000000000001
 20
2.299999999999997
 30
0.0
 40
2.012499999999988
100
AcDbArc
 50
180.0
 51
270.0
  0
ARC
  5
75B
330
758
100
AcDbEntity
  8
0
  6
BYBLOCK
 62
     0
100
AcDbCircle
 10
-2.30000000000001
 20
2.299999999999997
 30
0.0
 40
2.012499999999988
100
AcDbArc
 50
270.0
 51
0.0
  0
ARC
  5
75C
330
758
100
AcDbEntity
  8
0
  6
BYBLOCK
 62
     0
100
AcDbCircle
 10
-2.30000000000001
 20
-2.299999999999997
 30
0.0
 40
2.012499999999988
100
AcDbArc
 50
0.0
 51
90.0
  0
LINE
  5
75D
330
758
100
AcDbEntity
  8
0
  6
BYBLOCK
 62
     0
100
AcDbLine
 10
-0.2874999999999943
 20
-2.299999999999997
 30
0.0
 11
0.2875000000000227
 21
-2.299999999999997
 31
0.0
  0
LINE
  5
75E
330
758
100
AcDbEntity
  8
0
  6
BYBLOCK
 62
     0
100
AcDbLine
 10
-2.30000000000001
 20
-0.2875000000000085
 30
0.0
 11
-2.30000000000001
 21
0.2875000000000085
 31
0.0
  0
ARC
  5
75F
330
758
100
AcDbEntity
  8
0
  6
BYBLOCK
 62
     0
100
AcDbCircle
 10
2.30000000000001
 20
-2.299999999999997
 30
0.0
 40
2.012499999999988
100
AcDbArc
 50
90.0
 51
180.0
  0
LINE
  5
760
330
758
100
AcDbEntity
  8
0
  6
BYBLOCK
 62
     0
100
AcDbLine
 10
2.30000000000001
 20
0.2875000000000085
 30
0.0
 11
2.30000000000001
 21
-0.2875000000000085
 31
0.0
  0
LINE
  5
761
330
758
100
AcDbEntity
  8
0
  6
BYBLOCK
 62
     0
100
AcDbLine
 10
-0.2874999999999943
 20
2.299999999999997
 30
0.0
 11
0.2875000000000227
 21
2.299999999999997
 31
0.0
  0
ENDBLK
  5
763
330
758
100
AcDbEntity
  8
0
100
AcDbBlockEnd
  0
BLOCK
  5
767
330
764
100
AcDbEntity
  8
0
100
AcDbBlockBegin
  2
CRSM0400
 70
     0
 10
0.0
 20
0.0
 30
0.0
  3
CRSM0400
  1

  0
ARC
  5
765
330
764
100
AcDbEntity
  8
0
  6
BYBLOCK
 62
     0
100
AcDbCircle
 10
8.5
 20
0.0
 30
0.0
 40
9.5
100
AcDbArc
 50
153.7617174556801
 51
206.2382825443198
  0
LINE
  5
766
330
764
100
AcDbEntity
  8
0
  6
BYBLOCK
 62
     0
100
AcDbLine
 10
0.0
 20
-4.199999999999988
 30
0.0
 11
0.0
 21
4.200000000000017
 31
0.0
  0
ENDBLK
  5
768
330
764
100
AcDbEntity
  8
0
100
AcDbBlockEnd
  0
BLOCK
  5
8F1
330
8EC
100
AcDbEntity
  8
0
100
AcDbBlockBegin
  2
TAPF03
 70
     0
 10
0.0
 20
0.0
 30
0.0
  3
TAPF03
  1

  0
LINE
  5
8ED
330
8EC
100
AcDbEntity
  8
0
  6
CENTER
 62
     7
100
AcDbLine
 10
0.0
 20
-4.581212723078351
 30
0.0
 11
0.0
 21
4.581212723078408
 31
0.0
  0
LINE
  5
8EE
330
8EC
100
AcDbEntity
  8
0
  6
CENTER
 62
     7
100
AcDbLine
 10
4.581212723078351
 20
0.0
 30
0.0
 11
-4.581212723078436
 21
0.0
 31
0.0
  0
CIRCLE
  5
8EF
330
8EC
100
AcDbEntity
  8
0
  6
BYBLOCK
 62
     7
100
AcDbCircle
 10
0.0
 20
0.0
 30
0.0
 40
1.5
  0
CIRCLE
  5
8F0
330
8EC
100
AcDbEntity
  8
0
  6
BYBLOCK
 62
     0
100
AcDbCircle
 10
0.0
 20
0.0
 30
0.0
 40
1.25
  0
ENDBLK
  5
8F2
330
8EC
100
AcDbEntity
  8
0
100
AcDbBlockEnd
  0
BLOCK
  5
8F6
330
8F3
100
AcDbEntity
  8
0
100
AcDbBlockBegin
  2
TAPF04N
 70
     0
 10
0.0
 20
0.0
 30
0.0
  3
TAPF04N
  1

  0
CIRCLE
  5
8F4
330
8F3
100
AcDbEntity
  8
0
  6
BYBLOCK
 62
     7
100
AcDbCircle
 10
0.0000341022967518
 20
0.0000034482757485
 30
0.0
 40
2.0
  0
CIRCLE
  5
8F5
330
8F3
100
AcDbEntity
  8
0
  6
BYBLOCK
 62
     0
100
AcDbCircle
 10
0.0000341022967518
 20
0.0000034482757485
 30
0.0
 40
1.649999999999999
  0
ENDBLK
  5
8F7
330
8F3
100
AcDbEntity
  8
0
100
AcDbBlockEnd
  0
BLOCK
  5
952
330
94A
100
AcDbEntity
  8
0
100
AcDbBlockBegin
  2
HB08H
 70
     0
 10
0.0
 20
0.0
 30
0.0
  3
HB08H
  1

  0
LINE
  5
94B
330
94A
100
AcDbEntity
  8
0
  6
BYBLOCK
 62
     0
100
AcDbLine
 10
7.50556878758131
 20
0.0000034482758622
 30
0.0
 11
3.75279378758131
 21
6.500000417650099
 31
0.0
  0
LINE
  5
94C
330
94A
100
AcDbEntity
  8
0
  6
BYBLOCK
 62
     0
100
AcDbLine
 10
-3.752756212418692
 20
6.500000417650099
 30
0.0
 11
-7.505531212418691
 21
0.0000034482758622
 31
0.0
  0
CIRCLE
  5
94D
330
94A
100
AcDbEntity
  8
0
  6
BYBLOCK
 62
     0
100
AcDbCircle
 10
0.0000187875813111
 20
0.0000034482758622
 30
0.0
 40
6.299999999999999
  0
LINE
  5
94E
330
94A
100
AcDbEntity
  8
0
  6
BYBLOCK
 62
     0
100
AcDbLine
 10
-3.752756212418709
 20
-6.499993521098431
 30
0.0
 11
3.752793787581289
 21
-6.499993521098474
 31
0.0
  0
LINE
  5
94F
330
94A
100
AcDbEntity
  8
0
  6
BYBLOCK
 62
     0
100
AcDbLine
 10
-7.505531212418691
 20
0.0000034482758622
 30
0.0
 11
-3.752756212418709
 21
-6.499993521098431
 31
0.0
  0
LINE
  5
950
330
94A
100
AcDbEntity
  8
0
  6
BYBLOCK
 62
     0
100
AcDbLine
 10
3.752793787581289
 20
-6.499993521098474
 30
0.0
 11
7.50556878758131
 21
0.0000034482758622
 31
0.0
  0
LINE
  5
951
330
94A
100
AcDbEntity
  8
0
  6
BYBLOCK
 62
     0
100
AcDbLine
 10
3.75279378758131
 20
6.500000417650099
 30
0.0
 11
-3.752756212418692
 21
6.500000417650099
 31
0.0
  0
ENDBLK
  5
953
330
94A
100
AcDbEntity
  8
0
100
AcDbBlockEnd
  0
BLOCK
  5
979
330
96F
100
AcDbEntity
  8
0
100
AcDbBlockBegin
  2
*D45
 70
     1
 10
0.0
 20
0.0
 30
0.0
  3
*D45
  1

  0
LINE
  5
970
330
96F
100
AcDbEntity
  8
寸法線
 62
     0
100
AcDbLine
 10
192.5
 20
161.5
 30
0.0
 11
192.5
 21
196.7705603400849
 31
0.0
  0
LINE
  5
971
330
96F
100
AcDbEntity
  8
寸法線
 62
     0
100
AcDbLine
 10
307.5
 20
161.5
 30
0.0
 11
307.5
 21
196.7705603400849
 31
0.0
  0
LINE
  5
972
330
96F
100
AcDbEntity
  8
寸法線
 62
     0
100
AcDbLine
 10
200.0
 20
193.0205603400849
 30
0.0
 11
300.0
 21
193.0205603400849
 31
0.0
  0
SOLID
  5
973
330
96F
100
AcDbEntity
  8
寸法線
 62
     0
100
AcDbTrace
 10
200.0
 20
194.2705603400849
 30
0.0
 11
200.0
 21
191.7705603400849
 31
0.0
 12
192.5
 22
193.0205603400849
 32
0.0
 13
192.5
 23
193.0205603400849
 33
0.0
  0
SOLID
  5
974
330
96F
100
AcDbEntity
  8
寸法線
 62
     0
100
AcDbTrace
 10
300.0
 20
194.2705603400849
 30
0.0
 11
300.0
 21
191.7705603400849
 31
0.0
 12
307.5
 22
193.0205603400849
 32
0.0
 13
307.5
 23
193.0205603400849
 33
0.0
  0
MTEXT
  5
975
330
96F
100
AcDbEntity
  8
寸法線
 62
     0
100
AcDbMText
 10
250.0
 20
198.6455603400848
 30
0.0
 40
7.5
 41
0.0
 71
     5
 72
     1
  1
115
1001
ACAD
1000
MTEXTBEGIN
1070
    73
1070
     1
1070
    44
1040
1.0
1070
    74
1070
     0
1000
MTEXTEND
  0
POINT
  5
976
330
96F
100
AcDbEntity
  8
DEFPOINTS
 62
     0
100
AcDbPoint
 10
192.5
 20
160.0
 30
0.0
  0
POINT
  5
977
330
96F
100
AcDbEntity
  8
DEFPOINTS
 62
     0
100
AcDbPoint
 10
307.5
 20
160.0
 30
0.0
  0
POINT
  5
978
330
96F
100
AcDbEntity
  8
DEFPOINTS
 62
     0
100
AcDbPoint
 10
307.5
 20
193.0205603400849
 30
0.0
  0
ENDBLK
  5
97A
330
96F
100
AcDbEntity
  8
0
100
AcDbBlockEnd
  0
BLOCK
  5
985
330
97B
100
AcDbEntity
  8
0
100
AcDbBlockBegin
  2
*D46
 70
     1
 10
0.0
 20
0.0
 30
0.0
  3
*D46
  1

  0
LINE
  5
97C
330
97B
100
AcDbEntity
  8
寸法線
 62
     0
100
AcDbLine
 10
191.0
 20
100.0
 30
0.0
 11
139.9471345700212
 21
100.0
 31
0.0
  0
LINE
  5
97D
330
97B
100
AcDbEntity
  8
寸法線
 62
     0
100
AcDbLine
 10
168.5
 20
130.0
 30
0.0
 11
139.9471345700212
 21
130.0
 31
0.0
  0
LINE
  5
97E
330
97B
100
AcDbEntity
  8
寸法線
 62
     0
100
AcDbLine
 10
143.6971345700212
 20
107.4999999999999
 30
0.0
 11
143.6971345700212
 21
122.5
 31
0.0
  0
SOLID
  5
97F
330
97B
100
AcDbEntity
  8
寸法線
 62
     0
100
AcDbTrace
 10
142.4471345700212
 20
107.4999999999999
 30
0.0
 11
144.9471345700212
 21
107.4999999999999
 31
0.0
 12
143.6971345700212
 22
100.0
 32
0.0
 13
143.6971345700212
 23
100.0
 33
0.0
  0
SOLID
  5
980
330
97B
100
AcDbEntity
  8
寸法線
 62
     0
100
AcDbTrace
 10
142.4471345700212
 20
122.5
 30
0.0
 11
144.9471345700212
 21
122.5
 31
0.0
 12
143.6971345700212
 22
130.0
 32
0.0
 13
143.6971345700212
 23
130.0
 33
0.0
  0
MTEXT
  5
981
330
97B
100
AcDbEntity
  8
寸法線
 62
     0
100
AcDbMText
 10
138.0721345700212
 20
115.0
 30
0.0
 40
7.5
 41
0.0
 71
     5
 72
     1
  1
30
 11
0.0000000000000001
 21
1.0
 31
0.0
1001
ACAD
1000
MTEXTBEGIN
1070
    73
1070
     1
1070
    44
1040
1.0
1070
    74
1070
     0
1000
MTEXTEND
  0
POINT
  5
982
330
97B
100
AcDbEntity
  8
DEFPOINTS
 62
     0
100
AcDbPoint
 10
192.5
 20
100.0
 30
0.0
  0
POINT
  5
983
330
97B
100
AcDbEntity
  8
DEFPOINTS
 62
     0
100
AcDbPoint
 10
170.0
 20
130.0
 30
0.0
  0
POINT
  5
984
330
97B
100
AcDbEntity
  8
DEFPOINTS
 62
     0
100
AcDbPoint
 10
143.6971345700212
 20
130.0
 30
0.0
  0
ENDBLK
  5
986
330
97B
100
AcDbEntity
  8
0
100
AcDbBlockEnd
  0
BLOCK
  5
991
330
987
100
AcDbEntity
  8
0
100
AcDbBlockBegin
  2
*D47
 70
     1
 10
0.0
 20
0.0
 30
0.0
  3
*D47
  1

  0
LINE
  5
988
330
987
100
AcDbEntity
  8
寸法線
 62
     0
100
AcDbLine
 10
191.0
 20
100.0
 30
0.0
 11
99.94713457002127
 21
100.0
 31
0.0
  0
LINE
  5
989
330
987
100
AcDbEntity
  8
寸法線
 62
     0
100
AcDbLine
 10
191.0
 20
160.0
 30
0.0
 11
99.94713457002127
 21
160.0
 31
0.0
  0
LINE
  5
98A
330
987
100
AcDbEntity
  8
寸法線
 62
     0
100
AcDbLine
 10
103.6971345700212
 20
107.4999999999999
 30
0.0
 11
103.6971345700212
 21
152.5
 31
0.0
  0
SOLID
  5
98B
330
987
100
AcDbEntity
  8
寸法線
 62
     0
100
AcDbTrace
 10
102.4471345700212
 20
107.4999999999999
 30
0.0
 11
104.9471345700212
 21
107.4999999999999
 31
0.0
 12
103.6971345700212
 22
100.0
 32
0.0
 13
103.6971345700212
 23
100.0
 33
0.0
  0
SOLID
  5
98C
330
987
100
AcDbEntity
  8
寸法線
 62
     0
100
AcDbTrace
 10
102.4471345700212
 20
152.5
 30
0.0
 11
104.9471345700212
 21
152.5
 31
0.0
 12
103.6971345700212
 22
160.0
 32
0.0
 13
103.6971345700212
 23
160.0
 33
0.0
  0
MTEXT
  5
98D
330
987
100
AcDbEntity
  8
寸法線
 62
     0
100
AcDbMText
 10
98.07213457002125
 20
130.0
 30
0.0
 40
7.5
 41
0.0
 71
     5
 72
     1
  1
60
 11
0.0000000000000001
 21
1.0
 31
0.0
1001
ACAD
1000
MTEXTBEGIN
1070
    73
1070
     1
1070
    44
1040
1.0
1070
    74
1070
     0
1000
MTEXTEND
  0
POINT
  5
98E
330
987
100
AcDbEntity
  8
DEFPOINTS
 62
     0
100
AcDbPoint
 10
192.5
 20
100.0
 30
0.0
  0
POINT
  5
98F
330
987
100
AcDbEntity
  8
DEFPOINTS
 62
     0
100
AcDbPoint
 10
192.5
 20
160.0
 30
0.0
  0
POINT
  5
990
330
987
100
AcDbEntity
  8
DEFPOINTS
 62
     0
100
AcDbPoint
 10
103.6971345700212
 20
160.0
 30
0.0
  0
ENDBLK
  5
992
330
987
100
AcDbEntity
  8
0
100
AcDbBlockEnd
  0
BLOCK
  5
999
330
993
100
AcDbEntity
  8
0
100
AcDbBlockBegin
  2
*D48
 70
     1
 10
0.0
 20
0.0
 30
0.0
  3
*D48
  1

  0
LINE
  5
994
330
993
100
AcDbEntity
  8
寸法線
 62
     0
100
AcDbLine
 10
249.9999999999999
 20
339.9999999999993
 30
0.0
 11
295.4901891332421
 21
396.4525702924308
 31
0.0
  0
SOLID
  5
995
330
993
100
AcDbEntity
  8
寸法線
 62
     0
100
AcDbTrace
 10
294.5168689557864
 20
397.2368838981763
 30
0.0
 11
296.4635093106979
 21
395.6682566866852
 31
0.0
 12
300.1960707677154
 22
402.292491357165
 32
0.0
 13
300.1960707677154
 23
402.292491357165
 33
0.0
  0
MTEXT
  5
996
330
993
100
AcDbEntity
  8
寸法線
 62
     0
100
AcDbMText
 10
268.6113127349927
 20
372.061175567652
 30
0.0
 40
7.5
 41
0.0
 71
     5
 72
     1
  1
R80
 11
0.62745088459644
 21
0.7786561419645678
 31
0.0
1001
ACAD
1000
MTEXTBEGIN
1070
    73
1070
     1
1070
    44
1040
1.0
1070
    74
1070
     0
1000
MTEXTEND
  0
POINT
  5
997
330
993
100
AcDbEntity
  8
DEFPOINTS
 62
     0
100
AcDbPoint
 10
300.1960707677154
 20
402.292491357165
 30
0.0
  0
POINT
  5
998
330
993
100
AcDbEntity
  8
DEFPOINTS
 62
     0
100
AcDbPoint
 10
249.9999999999999
 20
339.9999999999993
 30
0.0
  0
ENDBLK
  5
99A
330
993
100
AcDbEntity
  8
0
100
AcDbBlockEnd
  0
BLOCK
  5
9A1
330
99B
100
AcDbEntity
  8
0
100
AcDbBlockBegin
  2
*D49
 70
     1
 10
0.0
 20
0.0
 30
0.0
  3
*D49
  1

  0
LINE
  5
99C
330
99B
100
AcDbEntity
  8
寸法線
 62
     0
100
AcDbLine
 10
249.9999999999997
 20
340.0
 30
0.0
 11
308.6976763808919
 21
361.4670162687807
 31
0.0
  0
SOLID
  5
99D
330
99B
100
AcDbEntity
  8
寸法線
 62
     0
100
AcDbTrace
 10
308.2683360555163
 20
362.6409697963986
 30
0.0
 11
309.1270167062675
 21
360.2930627411629
 31
0.0
 12
315.7413975465989
 22
364.0430582210344
 32
0.0
 13
315.7413975465989
 23
364.0430582210344
 33
0.0
  0
MTEXT
  5
99E
330
99B
100
AcDbEntity
  8
寸法線
 62
     0
100
AcDbMText
 10
285.2591539861935
 20
358.8844158847471
 30
0.0
 40
7.5
 41
0.0
 71
     5
 72
     1
  1
R70
 11
0.9391628220942697
 21
0.3434722603004894
 31
0.0
1001
ACAD
1000
MTEXTBEGIN
1070
    73
1070
     1
1070
    44
1040
1.0
1070
    74
1070
     0
1000
MTEXTEND
  0
POINT
  5
99F
330
99B
100
AcDbEntity
  8
DEFPOINTS
 62
     0
100
AcDbPoint
 10
315.7413975465989
 20
364.0430582210344
 30
0.0
  0
POINT
  5
9A0
330
99B
100
AcDbEntity
  8
DEFPOINTS
 62
     0
100
AcDbPoint
 10
249.9999999999997
 20
340.0
 30
0.0
  0
ENDBLK
  5
9A2
330
99B
100
AcDbEntity
  8
0
100
AcDbBlockEnd
  0
BLOCK
  5
9A9
330
9A3
100
AcDbEntity
  8
0
100
AcDbBlockBegin
  2
*D50
 70
     1
 10
0.0
 20
0.0
 30
0.0
  3
*D50
  1

  0
LINE
  5
9A4
330
9A3
100
AcDbEntity
  8
寸法線
 62
     0
100
AcDbLine
 10
250.0000000000005
 20
340.0000000000007
 30
0.0
 11
203.6926872484527
 21
358.8582285947111
 31
0.0
  0
SOLID
  5
9A5
330
9A3
100
AcDbEntity
  8
寸法線
 62
     0
100
AcDbTrace
 10
204.1641429633205
 20
360.0159114134997
 30
0.0
 11
203.221231533585
 21
357.7005457759223
 31
0.0
 12
196.7465903357206
 22
361.6869628839176
 32
0.0
 13
196.7465903357206
 23
361.6869628839176
 33
0.0
  0
MTEXT
  5
9A6
330
9A3
100
AcDbEntity
  8
寸法線
 62
     0
100
AcDbMText
 10
220.5551707368904
 20
358.0646915458945
 30
0.0
 40
7.5
 41
0.0
 71
     5
 72
     1
  1
R57.5
 11
0.9261462550309531
 21
-0.3771645718942073
 31
0.0
1001
ACAD
1000
MTEXTBEGIN
1070
    73
1070
     1
1070
    44
1040
1.0
1070
    74
1070
     0
1000
MTEXTEND
  0
POINT
  5
9A7
330
9A3
100
AcDbEntity
  8
DEFPOINTS
 62
     0
100
AcDbPoint
 10
196.7465903357206
 20
361.6869628839176
 30
0.0
  0
POINT
  5
9A8
330
9A3
100
AcDbEntity
  8
DEFPOINTS
 62
     0
100
AcDbPoint
 10
250.0000000000005
 20
340.0000000000007
 30
0.0
  0
ENDBLK
  5
9AA
330
9A3
100
AcDbEntity
  8
0
100
AcDbBlockEnd
  0
BLOCK
  5
9FB
330
9F5
100
AcDbEntity
  8
0
100
AcDbBlockBegin
  2
*D52
 70
     1
 10
0.0
 20
0.0
 30
0.0
  3
*D52
  1

  0
LINE
  5
A31
330
9F5
100
AcDbEntity
  8
寸法線
 62
     0
100
AcDbLine
 10
1083.196892883892
 20
944.9349557630201
 30
0.0
 11
1036.889580132345
 21
963.7931843577305
 31
0.0
  0
SOLID
  5
A32
330
9F5
100
AcDbEntity
  8
寸法線
 62
     0
100
AcDbTrace
 10
1037.361035847212
 20
964.9508671765193
 30
0.0
 11
1036.418124417477
 21
962.6355015389419
 31
0.0
 12
1029.943483219613
 22
966.6219186469373
 32
0.0
 13
1029.943483219613
 23
966.6219186469373
 33
0.0
  0
MTEXT
  5
A33
330
9F5
100
AcDbEntity
  8
寸法線
 62
     0
100
AcDbMText
 10
1053.752063620783
 20
962.9996473089141
 30
0.0
 40
7.5
 41
0.0
 71
     5
 72
     1
  1
R57.5
 11
0.9261462550309527
 21
-0.3771645718942081
 31
0.0
1001
ACAD
1000
MTEXTBEGIN
1070
    73
1070
     1
1070
    44
1040
1.0
1070
    74
1070
     0
1000
MTEXTEND
  0
POINT
  5
A34
330
9F5
100
AcDbEntity
  8
DEFPOINTS
 62
     0
100
AcDbPoint
 10
1029.943483219613
 20
966.6219186469373
 30
0.0
  0
POINT
  5
A35
330
9F5
100
AcDbEntity
  8
DEFPOINTS
 62
     0
100
AcDbPoint
 10
1083.196892883892
 20
944.9349557630201
 30
0.0
  0
ENDBLK
  5
9FC
330
9F5
100
AcDbEntity
  8
0
100
AcDbBlockEnd
  0
BLOCK
  5
A07
330
9FD
100
AcDbEntity
  8
0
100
AcDbBlockBegin
  2
*D53
 70
     1
 10
0.0
 20
0.0
 30
0.0
  3
*D53
  1

  0
LINE
  5
A36
330
9FD
100
AcDbEntity
  8
寸法線
 62
     0
100
AcDbLine
 10
1025.696892883892
 20
766.4349557630194
 30
0.0
 11
1025.696892883892
 21
801.7055161031043
 31
0.0
  0
LINE
  5
A37
330
9FD
100
AcDbEntity
  8
寸法線
 62
     0
100
AcDbLine
 10
1140.696892883892
 20
766.4349557630194
 30
0.0
 11
1140.696892883892
 21
801.7055161031043
 31
0.0
  0
LINE
  5
A38
330
9FD
100
AcDbEntity
  8
寸法線
 62
     0
100
AcDbLine
 10
1033.196892883892
 20
797.9555161031043
 30
0.0
 11
1133.196892883892
 21
797.9555161031043
 31
0.0
  0
SOLID
  5
A39
330
9FD
100
AcDbEntity
  8
寸法線
 62
     0
100
AcDbTrace
 10
1033.196892883892
 20
799.2055161031043
 30
0.0
 11
1033.196892883892
 21
796.7055161031042
 31
0.0
 12
1025.696892883892
 22
797.9555161031043
 32
0.0
 13
1025.696892883892
 23
797.9555161031043
 33
0.0
  0
SOLID
  5
A3A
330
9FD
100
AcDbEntity
  8
寸法線
 62
     0
100
AcDbTrace
 10
1133.196892883892
 20
799.2055161031043
 30
0.0
 11
1133.196892883892
 21
796.7055161031042
 31
0.0
 12
1140.696892883892
 22
797.9555161031043
 32
0.0
 13
1140.696892883892
 23
797.9555161031043
 33
0.0
  0
MTEXT
  5
A3B
330
9FD
100
AcDbEntity
  8
寸法線
 62
     0
100
AcDbMText
 10
1083.196892883892
 20
803.5805161031042
 30
0.0
 40
7.5
 41
0.0
 71
     5
 72
     1
  1
115
1001
ACAD
1000
MTEXTBEGIN
1070
    73
1070
     1
1070
    44
1040
1.0
1070
    74
1070
     0
1000
MTEXTEND
  0
POINT
  5
A3C
330
9FD
100
AcDbEntity
  8
DEFPOINTS
 62
     0
100
AcDbPoint
 10
1025.696892883892
 20
764.9349557630194
 30
0.0
  0
POINT
  5
A3D
330
9FD
100
AcDbEntity
  8
DEFPOINTS
 62
     0
100
AcDbPoint
 10
1140.696892883892
 20
764.9349557630194
 30
0.0
  0
POINT
  5
A3E
330
9FD
100
AcDbEntity
  8
DEFPOINTS
 62
     0
100
AcDbPoint
 10
1140.696892883892
 20
797.9555161031043
 30
0.0
  0
ENDBLK
  5
A08
330
9FD
100
AcDbEntity
  8
0
100
AcDbBlockEnd
  0
BLOCK
  5
A13
330
A09
100
AcDbEntity
  8
0
100
AcDbBlockBegin
  2
*D54
 70
     1
 10
0.0
 20
0.0
 30
0.0
  3
*D54
  1

  0
LINE
  5
A3F
330
A09
100
AcDbEntity
  8
寸法線
 62
     0
100
AcDbLine
 10
1024.196892883892
 20
704.9349557630193
 30
0.0
 11
933.1440274539136
 21
704.9349557630193
 31
0.0
  0
LINE
  5
A40
330
A09
100
AcDbEntity
  8
寸法線
 62
     0
100
AcDbLine
 10
1024.196892883892
 20
764.9349557630194
 30
0.0
 11
933.1440274539136
 21
764.9349557630194
 31
0.0
  0
LINE
  5
A41
330
A09
100
AcDbEntity
  8
寸法線
 62
     0
100
AcDbLine
 10
936.8940274539136
 20
712.4349557630194
 30
0.0
 11
936.8940274539136
 21
757.4349557630194
 31
0.0
  0
SOLID
  5
A42
330
A09
100
AcDbEntity
  8
寸法線
 62
     0
100
AcDbTrace
 10
935.6440274539137
 20
712.4349557630194
 30
0.0
 11
938.1440274539135
 21
712.4349557630194
 31
0.0
 12
936.8940274539136
 22
704.9349557630193
 32
0.0
 13
936.8940274539136
 23
704.9349557630193
 33
0.0
  0
SOLID
  5
A43
330
A09
100
AcDbEntity
  8
寸法線
 62
     0
100
AcDbTrace
 10
935.6440274539137
 20
757.4349557630194
 30
0.0
 11
938.1440274539135
 21
757.4349557630194
 31
0.0
 12
936.8940274539136
 22
764.9349557630194
 32
0.0
 13
936.8940274539136
 23
764.9349557630194
 33
0.0
  0
MTEXT
  5
A44
330
A09
100
AcDbEntity
  8
寸法線
 62
     0
100
AcDbMText
 10
931.2690274539134
 20
734.9349557630195
 30
0.0
 40
7.5
 41
0.0
 71
     5
 72
     1
  1
60
 11
0.0000000000000001
 21
1.0
 31
0.0
1001
ACAD
1000
MTEXTBEGIN
1070
    73
1070
     1
1070
    44
1040
1.0
1070
    74
1070
     0
1000
MTEXTEND
  0
POINT
  5
A45
330
A09
100
AcDbEntity
  8
DEFPOINTS
 62
     0
100
AcDbPoint
 10
1025.696892883892
 20
704.9349557630193
 30
0.0
  0
POINT
  5
A46
330
A09
100
AcDbEntity
  8
DEFPOINTS
 62
     0
100
AcDbPoint
 10
1025.696892883892
 20
764.9349557630194
 30
0.0
  0
POINT
  5
A47
330
A09
100
AcDbEntity
  8
DEFPOINTS
 62
     0
100
AcDbPoint
 10
936.8940274539136
 20
764.9349557630194
 30
0.0
  0
ENDBLK
  5
A14
330
A09
100
AcDbEntity
  8
0
100
AcDbBlockEnd
  0
BLOCK
  5
A1F
330
A15
100
AcDbEntity
  8
0
100
AcDbBlockBegin
  2
*D55
 70
     1
 10
0.0
 20
0.0
 30
0.0
  3
*D55
  1

  0
LINE
  5
A48
330
A15
100
AcDbEntity
  8
寸法線
 62
     0
100
AcDbLine
 10
1024.196892883892
 20
704.9349557630193
 30
0.0
 11
973.1440274539137
 21
704.9349557630193
 31
0.0
  0
LINE
  5
A49
330
A15
100
AcDbEntity
  8
寸法線
 62
     0
100
AcDbLine
 10
1001.696892883892
 20
734.9349557630193
 30
0.0
 11
973.1440274539137
 21
734.9349557630193
 31
0.0
  0
LINE
  5
A4A
330
A15
100
AcDbEntity
  8
寸法線
 62
     0
100
AcDbLine
 10
976.8940274539136
 20
712.4349557630194
 30
0.0
 11
976.8940274539136
 21
727.4349557630194
 31
0.0
  0
SOLID
  5
A4B
330
A15
100
AcDbEntity
  8
寸法線
 62
     0
100
AcDbTrace
 10
975.6440274539135
 20
712.4349557630194
 30
0.0
 11
978.1440274539136
 21
712.4349557630194
 31
0.0
 12
976.8940274539136
 22
704.9349557630193
 32
0.0
 13
976.8940274539136
 23
704.9349557630193
 33
0.0
  0
SOLID
  5
A4C
330
A15
100
AcDbEntity
  8
寸法線
 62
     0
100
AcDbTrace
 10
975.6440274539135
 20
727.4349557630194
 30
0.0
 11
978.1440274539136
 21
727.4349557630194
 31
0.0
 12
976.8940274539136
 22
734.9349557630193
 32
0.0
 13
976.8940274539136
 23
734.9349557630193
 33
0.0
  0
MTEXT
  5
A4D
330
A15
100
AcDbEntity
  8
寸法線
 62
     0
100
AcDbMText
 10
971.2690274539134
 20
719.9349557630195
 30
0.0
 40
7.5
 41
0.0
 71
     5
 72
     1
  1
30
 11
0.0000000000000001
 21
1.0
 31
0.0
1001
ACAD
1000
MTEXTBEGIN
1070
    73
1070
     1
1070
    44
1040
1.0
1070
    74
1070
     0
1000
MTEXTEND
  0
POINT
  5
A4E
330
A15
100
AcDbEntity
  8
DEFPOINTS
 62
     0
100
AcDbPoint
 10
1025.696892883892
 20
704.9349557630193
 30
0.0
  0
POINT
  5
A4F
330
A15
100
AcDbEntity
  8
DEFPOINTS
 62
     0
100
AcDbPoint
 10
1003.196892883892
 20
734.9349557630193
 30
0.0
  0
POINT
  5
A50
330
A15
100
AcDbEntity
  8
DEFPOINTS
 62
     0
100
AcDbPoint
 10
976.8940274539136
 20
734.9349557630193
 30
0.0
  0
ENDBLK
  5
A20
330
A15
100
AcDbEntity
  8
0
100
AcDbBlockEnd
  0
BLOCK
  5
A27
330
A21
100
AcDbEntity
  8
0
100
AcDbBlockBegin
  2
*D56
 70
     1
 10
0.0
 20
0.0
 30
0.0
  3
*D56
  1

  0
LINE
  5
A51
330
A21
100
AcDbEntity
  8
寸法線
 62
     0
100
AcDbLine
 10
1083.196892883892
 20
944.9349557630188
 30
0.0
 11
1128.687082017134
 21
1001.38752605545
 31
0.0
  0
SOLID
  5
A52
330
A21
100
AcDbEntity
  8
寸法線
 62
     0
100
AcDbTrace
 10
1127.713761839679
 20
1002.171839661195
 30
0.0
 11
1129.66040219459
 21
1000.603212449704
 31
0.0
 12
1133.392963651608
 22
1007.227447120184
 32
0.0
 13
1133.392963651608
 23
1007.227447120184
 33
0.0
  0
MTEXT
  5
A53
330
A21
100
AcDbEntity
  8
寸法線
 62
     0
100
AcDbMText
 10
1101.808205618885
 20
976.9961313306714
 30
0.0
 40
7.5
 41
0.0
 71
     5
 72
     1
  1
R80
 11
0.6274508845964412
 21
0.778656141964567
 31
0.0
1001
ACAD
1000
MTEXTBEGIN
1070
    73
1070
     1
1070
    44
1040
1.0
1070
    74
1070
     0
1000
MTEXTEND
  0
POINT
  5
A54
330
A21
100
AcDbEntity
  8
DEFPOINTS
 62
     0
100
AcDbPoint
 10
1133.392963651608
 20
1007.227447120184
 30
0.0
  0
POINT
  5
A55
330
A21
100
AcDbEntity
  8
DEFPOINTS
 62
     0
100
AcDbPoint
 10
1083.196892883892
 20
944.9349557630188
 30
0.0
  0
ENDBLK
  5
A28
330
A21
100
AcDbEntity
  8
0
100
AcDbBlockEnd
  0
BLOCK
  5
A2F
330
A29
100
AcDbEntity
  8
0
100
AcDbBlockBegin
  2
*D57
 70
     1
 10
0.0
 20
0.0
 30
0.0
  3
*D57
  1

  0
LINE
  5
A56
330
A29
100
AcDbEntity
  8
寸法線
 62
     0
100
AcDbLine
 10
1083.196892883892
 20
944.9349557630196
 30
0.0
 11
1141.894569264784
 21
966.4019720318002
 31
0.0
  0
SOLID
  5
A57
330
A29
100
AcDbEntity
  8
寸法線
 62
     0
100
AcDbTrace
 10
1141.465228939408
 20
967.5759255594179
 30
0.0
 11
1142.32390959016
 21
965.2280185041824
 31
0.0
 12
1148.938290430491
 22
968.9780139840539
 32
0.0
 13
1148.938290430491
 23
968.9780139840539
 33
0.0
  0
MTEXT
  5
A58
330
A29
100
AcDbEntity
  8
寸法線
 62
     0
100
AcDbMText
 10
1118.456046870085
 20
963.8193716477665
 30
0.0
 40
7.5
 41
0.0
 71
     5
 72
     1
  1
R70
 11
0.9391628220942685
 21
0.3434722603004927
 31
0.0
1001
ACAD
1000
MTEXTBEGIN
1070
    73
1070
     1
1070
    44
1040
1.0
1070
    74
1070
     0
1000
MTEXTEND
  0
POINT
  5
A59
330
A29
100
AcDbEntity
  8
DEFPOINTS
 62
     0
100
AcDbPoint
 10
1148.938290430491
 20
968.9780139840539
 30
0.0
  0
POINT
  5
A5A
330
A29
100
AcDbEntity
  8
DEFPOINTS
 62
     0
100
AcDbPoint
 10
1083.196892883892
 20
944.9349557630196
 30
0.0
  0
ENDBLK
  5
A30
330
A29
100
AcDbEntity
  8
0
100
AcDbBlockEnd
  0
BLOCK
  5
A80
330
A7D
100
AcDbEntity
  8
0
100
AcDbBlockBegin
  2
TAPF06N
 70
     0
 10
0.0
 20
0.0
 30
0.0
  3
TAPF06N
  1

  0
CIRCLE
  5
A7E
330
A7D
100
AcDbEntity
  8
0
  6
BYBLOCK
 62
     7
100
AcDbCircle
 10
0.0000341022967518
 20
0.0000034482757485
 30
0.0
 40
3.0
  0
CIRCLE
  5
A7F
330
A7D
100
AcDbEntity
  8
0
  6
BYBLOCK
 62
     0
100
AcDbCircle
 10
0.0000341022967518
 20
0.0000034482757485
 30
0.0
 40
2.35
  0
ENDBLK
  5
A81
330
A7D
100
AcDbEntity
  8
0
100
AcDbBlockEnd
  0
BLOCK
  5
B35
330
B2D
100
AcDbEntity
  8
0
100
AcDbBlockBegin
  2
*D63
 70
     1
 10
0.0
 20
0.0
 30
0.0
  3
*D63
  1

  0
LINE
  5
B2E
330
B2D
100
AcDbEntity
  8
補助線
 62
     0
100
AcDbLine
 10
430.7277819386097
 20
637.0917429692886
 30
0.0
 11
436.5652232730456
 21
642.9291843037247
 31
0.0
  0
LINE
  5
B2F
330
B2D
100
AcDbEntity
  8
補助線
 62
     0
100
AcDbLine
 10
437.0917429692886
 20
630.7277819386097
 30
0.0
 11
442.9291843037246
 21
636.5652232730456
 31
0.0
  0
LINE
  5
B30
330
B2D
100
AcDbEntity
  8
補助線
 62
     0
100
AcDbLine
 10
433.9135728435961
 20
640.2775338742751
 30
0.0
 11
440.277533874275
 21
633.9135728435961
 31
0.0
  0
MTEXT
  5
B31
330
B2D
100
AcDbEntity
  8
補助線
 62
     0
100
AcDbMText
 10
441.0730290031098
 20
641.0730290031099
 30
0.0
 40
7.5
 41
0.0
 71
     5
 72
     1
  1
9
 11
0.7071067811865476
 21
-0.7071067811865475
 31
0.0
1001
ACAD
1000
MTEXTBEGIN
1070
    73
1070
     1
1070
    44
1040
1.0
1070
    74
1070
     0
1000
MTEXTEND
  0
POINT
  5
B32
330
B2D
100
AcDbEntity
  8
DEFPOINTS
 62
     0
100
AcDbPoint
 10
429.6671217668299
 20
636.0310827975089
 30
0.0
  0
POINT
  5
B33
330
B2D
100
AcDbEntity
  8
DEFPOINTS
 62
     0
100
AcDbPoint
 10
436.0310827975089
 20
629.6671217668299
 30
0.0
  0
POINT
  5
B34
330
B2D
100
AcDbEntity
  8
DEFPOINTS
 62
     0
100
AcDbPoint
 10
440.277533874275
 20
633.9135728435961
 30
0.0
  0
ENDBLK
  5
B36
330
B2D
100
AcDbEntity
  8
0
100
AcDbBlockEnd
  0
BLOCK
  5
B46
330
B3A
100
AcDbEntity
  8
0
100
AcDbBlockBegin
  2
N13S08
 70
     0
 10
0.0
 20
0.0
 30
0.0
  3
N13S08
  1

  0
ARC
  5
B3B
330
B3A
100
AcDbEntity
  8
0
  6
BYBLOCK
 62
     0
100
AcDbCircle
 10
3.576549244124294
 20
0.0000034482758622
 30
0.0
 40
10.07653045654297
100
AcDbArc
 50
158.1346069180964
 51
201.8653930819034
  0
LINE
  5
B3C
330
B3A
100
AcDbEntity
  8
0
  6
BYBLOCK
 62
     0
100
AcDbLine
 10
-6.499981212418674
 20
6.250003448275805
 30
0.0
 11
-6.499981212418674
 21
-6.249996551724137
 31
0.0
  0
LINE
  5
B3D
330
B3A
100
AcDbEntity
  8
0
  6
BYBLOCK
 62
     0
100
AcDbLine
 10
0.0000187875813253
 20
7.505553448275804
 30
0.0
 11
0.0000187875813253
 21
-7.505546551724137
 31
0.0
  0
LINE
  5
B3E
330
B3A
100
AcDbEntity
  8
0
  6
BYBLOCK
 62
     0
100
AcDbLine
 10
0.0000187875813253
 20
-3.752771551724137
 30
0.0
 11
-5.775089419918572
 21
-3.752771551724137
 31
0.0
  0
LINE
  5
B3F
330
B3A
100
AcDbEntity
  8
0
  6
BYBLOCK
 62
     0
100
AcDbLine
 10
0.0000187875813253
 20
-7.505546551724137
 30
0.0
 11
-5.775089419918572
 21
-7.505546551724137
 31
0.0
  0
ARC
  5
B40
330
B3A
100
AcDbEntity
  8
0
  6
BYBLOCK
 62
     0
100
AcDbCircle
 10
-2.525089549821018
 20
-5.629159051724144
 30
0.0
 40
3.752776145935058
100
AcDbArc
 50
150.000010575927
 51
209.9999894240728
  0
LINE
  5
B41
330
B3A
100
AcDbEntity
  8
0
  6
BYBLOCK
 62
     0
100
AcDbLine
 10
-5.775089419918572
 20
-7.505546551724137
 30
0.0
 11
-6.499981212418674
 21
-6.249996551724137
 31
0.0
  0
LINE
  5
B42
330
B3A
100
AcDbEntity
  8
0
  6
BYBLOCK
 62
     0
100
AcDbLine
 10
0.0000187875813253
 20
3.752778448275805
 30
0.0
 11
-5.775089419918572
 21
3.752778448275805
 31
0.0
  0
LINE
  5
B43
330
B3A
100
AcDbEntity
  8
0
  6
BYBLOCK
 62
     0
100
AcDbLine
 10
0.0000187875813253
 20
7.505553448275804
 30
0.0
 11
-5.775089419918572
 21
7.505553448275804
 31
0.0
  0
ARC
  5
B44
330
B3A
100
AcDbEntity
  8
0
  6
BYBLOCK
 62
     0
100
AcDbCircle
 10
-2.525089549821018
 20
5.629165948275797
 30
0.0
 40
3.752776145935058
100
AcDbArc
 50
150.000010575927
 51
209.9999894240728
  0
LINE
  5
B45
330
B3A
100
AcDbEntity
  8
0
  6
BYBLOCK
 62
     0
100
AcDbLine
 10
-5.775089419918572
 20
7.505553448275804
 30
0.0
 11
-6.499981212418674
 21
6.250003448275805
 31
0.0
  0
ENDBLK
  5
B47
330
B3A
100
AcDbEntity
  8
0
100
AcDbBlockEnd
  0
BLOCK
  5
B7F
330
B78
100
AcDbEntity
  8
0
100
AcDbBlockBegin
  2
*D65
 70
     1
 10
0.0
 20
0.0
 30
0.0
  3
*D65
  1

  0
LINE
  5
B79
330
B78
100
AcDbEntity
  8
寸法線
 62
     0
100
AcDbLine
 10
1123.414358422889
 20
921.0018100103273
 30
0.0
 11
1042.979427344895
 21
968.8681015157115
 31
0.0
  0
SOLID
  5
B7A
330
B78
100
AcDbEntity
  8
寸法線
 62
     0
100
AcDbTrace
 10
1124.053598426967
 20
922.0759944531423
 30
0.0
 11
1122.775118418811
 21
919.9276255675123
 31
0.0
 12
1129.859465079779
 22
917.1663699858575
 32
0.0
 13
1129.859465079779
 23
917.1663699858575
 33
0.0
  0
SOLID
  5
B7B
330
B78
100
AcDbEntity
  8
寸法線
 62
     0
100
AcDbTrace
 10
1043.618667348974
 20
969.9422859585267
 30
0.0
 11
1042.340187340817
 21
967.7939170728967
 31
0.0
 12
1036.534320688005
 22
972.7035415401816
 32
0.0
 13
1036.534320688005
 23
972.7035415401816
 33
0.0
  0
MTEXT
  5
B7C
330
B78
100
AcDbEntity
  8
寸法線
 62
     0
100
AcDbMText
 10
1058.011805899337
 20
966.4680967998624
 30
0.0
 40
7.5
 41
0.0
 71
     5
 72
     1
  1
\U+2205108.6
 11
0.8593475542520689
 21
-0.5113920032626515
 31
0.0
1001
ACAD
1000
MTEXTBEGIN
1070
    73
1070
     1
1070
    44
1040
1.0
1070
    74
1070
     0
1000
MTEXTEND
  0
POINT
  5
B7D
330
B78
100
AcDbEntity
  8
DEFPOINTS
 62
     0
100
AcDbPoint
 10
1036.534320688005
 20
972.7035415401816
 30
0.0
  0
POINT
  5
B7E
330
B78
100
AcDbEntity
  8
DEFPOINTS
 62
     0
100
AcDbPoint
 10
1129.859465079779
 20
917.1663699858575
 30
0.0
  0
ENDBLK
  5
B80
330
B78
100
AcDbEntity
  8
0
100
AcDbBlockEnd
  0
BLOCK
  5
B8A
330
B83
100
AcDbEntity
  8
0
100
AcDbBlockBegin
  2
*D66
 70
     1
 10
0.0
 20
0.0
 30
0.0
  3
*D66
  1

  0
LINE
  5
B84
330
B83
100
AcDbEntity
  8
寸法線
 62
     0
100
AcDbLine
 10
1120.211914653447
 20
913.2103491712996
 30
0.0
 11
1046.181871114337
 21
976.659562354739
 31
0.0
  0
SOLID
  5
B85
330
B83
100
AcDbEntity
  8
寸法線
 62
     0
100
AcDbTrace
 10
1121.025366104516
 20
914.1594522935958
 30
0.0
 11
1119.398463202377
 21
912.2612460490033
 31
0.0
 12
1125.906533387224
 22
908.3296404648812
 32
0.0
 13
1125.906533387224
 23
908.3296404648812
 33
0.0
  0
SOLID
  5
B86
330
B83
100
AcDbEntity
  8
寸法線
 62
     0
100
AcDbTrace
 10
1046.995322565407
 20
977.6086654770352
 30
0.0
 11
1045.368419663267
 21
975.7104592324427
 31
0.0
 12
1040.48725238056
 22
981.5402710611575
 32
0.0
 13
1040.48725238056
 23
981.5402710611575
 33
0.0
  0
MTEXT
  5
B87
330
B83
100
AcDbEntity
  8
寸法線
 62
     0
100
AcDbMText
 10
1064.557928292101
 20
968.3192066504821
 30
0.0
 40
7.5
 41
0.0
 71
     5
 72
     1
  1
\U+2205112.5
 11
0.7592824978370203
 21
-0.65076116085579
 31
0.0
1001
ACAD
1000
MTEXTBEGIN
1070
    73
1070
     1
1070
    44
1040
1.0
1070
    74
1070
     0
1000
MTEXTEND
  0
POINT
  5
B88
330
B83
100
AcDbEntity
  8
DEFPOINTS
 62
     0
100
AcDbPoint
 10
1040.48725238056
 20
981.5402710611575
 30
0.0
  0
POINT
  5
B89
330
B83
100
AcDbEntity
  8
DEFPOINTS
 62
     0
100
AcDbPoint
 10
1125.906533387224
 20
908.3296404648812
 30
0.0
  0
ENDBLK
  5
B8B
330
B83
100
AcDbEntity
  8
0
100
AcDbBlockEnd
  0
BLOCK
  5
BA0
330
B96
100
AcDbEntity
  8
0
100
AcDbBlockBegin
  2
*D67
 70
     1
 10
0.0
 20
0.0
 30
0.0
  3
*D67
  1

  0
LINE
  5
CD9
330
B96
100
AcDbEntity
  8
寸法線
 62
     0
100
AcDbLine
 10
238.75
 20
1129.5
 30
0.0
 11
238.75
 21
1146.405806065771
 31
0.0
  0
LINE
  5
CDA
330
B96
100
AcDbEntity
  8
寸法線
 62
     0
100
AcDbLine
 10
351.25
 20
1129.5
 30
0.0
 11
351.25
 21
1146.405806065771
 31
0.0
  0
LINE
  5
CDB
330
B96
100
AcDbEntity
  8
寸法線
 62
     0
100
AcDbLine
 10
246.2499999999999
 20
1142.655806065771
 30
0.0
 11
343.75
 21
1142.655806065771
 31
0.0
  0
SOLID
  5
CDC
330
B96
100
AcDbEntity
  8
寸法線
 62
     0
100
AcDbTrace
 10
246.2499999999999
 20
1143.905806065771
 30
0.0
 11
246.2499999999999
 21
1141.405806065771
 31
0.0
 12
238.75
 22
1142.655806065771
 32
0.0
 13
238.75
 23
1142.655806065771
 33
0.0
  0
SOLID
  5
CDD
330
B96
100
AcDbEntity
  8
寸法線
 62
     0
100
AcDbTrace
 10
343.75
 20
1143.905806065771
 30
0.0
 11
343.75
 21
1141.405806065771
 31
0.0
 12
351.25
 22
1142.655806065771
 32
0.0
 13
351.25
 23
1142.655806065771
 33
0.0
  0
MTEXT
  5
CDE
330
B96
100
AcDbEntity
  8
寸法線
 62
     0
100
AcDbMText
 10
295.0
 20
1148.281544254748
 30
0.0
 40
7.5
 41
0.0
 71
     5
 72
     1
  1
内径112.5
1001
ACAD
1000
MTEXTBEGIN
1070
    73
1070
     1
1070
    44
1040
1.0
1070
    74
1070
     0
1000
MTEXTEND
  0
POINT
  5
CDF
330
B96
100
AcDbEntity
  8
DEFPOINTS
 62
     0
100
AcDbPoint
 10
238.75
 20
1128.000000000001
 30
0.0
  0
POINT
  5
CE0
330
B96
100
AcDbEntity
  8
DEFPOINTS
 62
     0
100
AcDbPoint
 10
351.25
 20
1128.000000000001
 30
0.0
  0
POINT
  5
CE1
330
B96
100
AcDbEntity
  8
DEFPOINTS
 62
     0
100
AcDbPoint
 10
351.25
 20
1142.655806065771
 30
0.0
  0
ENDBLK
  5
BA1
330
B96
100
AcDbEntity
  8
0
100
AcDbBlockEnd
  0
BLOCK
  5
BC6
330
BBF
100
AcDbEntity
  8
0
100
AcDbBlockBegin
  2
*D68
 70
     1
 10
0.0
 20
0.0
 30
0.0
  3
*D68
  1

  0
LINE
  5
CE2
330
BBF
100
AcDbEntity
  8
寸法線
 62
     0
100
AcDbLine
 10
466.8622870177002
 20
401.0405757565573
 30
0.0
 11
373.1377129823002
 21
388.9594242434428
 31
0.0
  0
SOLID
  5
CE3
330
BBF
100
AcDbEntity
  8
寸法線
 62
     0
100
AcDbTrace
 10
466.7024834262569
 20
402.2803187993535
 30
0.0
 11
467.0220906091436
 21
399.8008327137609
 31
0.0
 12
474.3007452744781
 22
401.9993973052171
 32
0.0
 13
474.3007452744781
 23
401.9993973052171
 33
0.0
  0
SOLID
  5
CE4
330
BBF
100
AcDbEntity
  8
寸法線
 62
     0
100
AcDbTrace
 10
372.9779093908569
 20
390.1991672862391
 30
0.0
 11
373.2975165737435
 21
387.7196812006465
 31
0.0
 12
365.6992547255224
 22
388.0006026947829
 32
0.0
 13
365.6992547255224
 23
388.0006026947829
 33
0.0
  0
MTEXT
  5
CE5
330
BBF
100
AcDbEntity
  8
寸法線
 62
     0
100
AcDbMText
 10
397.4870697104231
 20
397.7696085134448
 30
0.0
 40
7.5
 41
0.0
 71
     5
 72
     1
  1
外径\U+2205109.5
 11
0.9917944342370368
 21
0.1278428731546505
 31
0.0
1001
ACAD
1000
MTEXTBEGIN
1070
    73
1070
     1
1070
    44
1040
1.0
1070
    74
1070
     0
1000
MTEXTEND
  0
POINT
  5
CE6
330
BBF
100
AcDbEntity
  8
DEFPOINTS
 62
     0
100
AcDbPoint
 10
365.6992547255224
 20
388.0006026947829
 30
0.0
  0
POINT
  5
CE7
330
BBF
100
AcDbEntity
  8
DEFPOINTS
 62
     0
100
AcDbPoint
 10
474.3007452744781
 20
401.9993973052171
 30
0.0
  0
ENDBLK
  5
BC7
330
BBF
100
AcDbEntity
  8
0
100
AcDbBlockEnd
  0
BLOCK
  5
C14
330
C0A
100
AcDbEntity
  8
0
100
AcDbBlockBegin
  2
*D69
 70
     1
 10
0.0
 20
0.0
 30
0.0
  3
*D69
  1

  0
LINE
  5
CBE
330
C0A
100
AcDbEntity
  8
寸法線
 62
     0
100
AcDbLine
 10
103.0
 20
850.0000000000008
 30
0.0
 11
78.77855962307605
 21
850.0000000000008
 31
0.0
  0
LINE
  5
CBF
330
C0A
100
AcDbEntity
  8
寸法線
 62
     0
100
AcDbLine
 10
113.7499999999999
 20
790.0000000000009
 30
0.0
 11
78.77855962307603
 21
790.0000000000009
 31
0.0
  0
LINE
  5
CC0
330
C0A
100
AcDbEntity
  8
寸法線
 62
     0
100
AcDbLine
 10
82.52855962307604
 20
842.5000000000009
 30
0.0
 11
82.52855962307604
 21
797.5000000000009
 31
0.0
  0
SOLID
  5
CC1
330
C0A
100
AcDbEntity
  8
寸法線
 62
     0
100
AcDbTrace
 10
81.27855962307604
 20
842.5000000000009
 30
0.0
 11
83.77855962307604
 21
842.5000000000009
 31
0.0
 12
82.52855962307604
 22
850.0000000000008
 32
0.0
 13
82.52855962307604
 23
850.0000000000008
 33
0.0
  0
SOLID
  5
CC2
330
C0A
100
AcDbEntity
  8
寸法線
 62
     0
100
AcDbTrace
 10
81.27855962307604
 20
797.5000000000009
 30
0.0
 11
83.77855962307604
 21
797.5000000000009
 31
0.0
 12
82.52855962307604
 22
790.0000000000009
 32
0.0
 13
82.52855962307604
 23
790.0000000000009
 33
0.0
  0
MTEXT
  5
CC3
330
C0A
100
AcDbEntity
  8
寸法線
 62
     0
100
AcDbMText
 10
76.90355962307592
 20
820.0000000000009
 30
0.0
 40
7.5
 41
0.0
 71
     5
 72
     1
  1
60
 11
0.0000000000000001
 21
1.0
 31
0.0
1001
ACAD
1000
MTEXTBEGIN
1070
    73
1070
     1
1070
    44
1040
1.0
1070
    74
1070
     0
1000
MTEXTEND
  0
POINT
  5
CC4
330
C0A
100
AcDbEntity
  8
DEFPOINTS
 62
     0
100
AcDbPoint
 10
104.4999999999999
 20
850.0000000000008
 30
0.0
  0
POINT
  5
CC5
330
C0A
100
AcDbEntity
  8
DEFPOINTS
 62
     0
100
AcDbPoint
 10
115.25
 20
790.0000000000009
 30
0.0
  0
POINT
  5
CC6
330
C0A
100
AcDbEntity
  8
DEFPOINTS
 62
     0
100
AcDbPoint
 10
82.52855962307604
 20
790.0000000000009
 30
0.0
  0
ENDBLK
  5
C15
330
C0A
100
AcDbEntity
  8
0
100
AcDbBlockEnd
  0
BLOCK
  5
C21
330
C17
100
AcDbEntity
  8
0
100
AcDbBlockBegin
  2
*D70
 70
     1
 10
0.0
 20
0.0
 30
0.0
  3
*D70
  1

  0
LINE
  5
CA7
330
C17
100
AcDbEntity
  8
寸法線
 62
     0
100
AcDbLine
 10
100.0
 20
891.5000000000008
 30
0.0
 11
100.0
 21
1171.995481707049
 31
0.0
  0
LINE
  5
CA8
330
C17
100
AcDbEntity
  8
寸法線
 62
     0
100
AcDbLine
 10
490.0
 20
891.5000000000009
 30
0.0
 11
490.0
 21
1171.995481707049
 31
0.0
  0
LINE
  5
CA9
330
C17
100
AcDbEntity
  8
寸法線
 62
     0
100
AcDbLine
 10
107.5
 20
1168.245481707048
 30
0.0
 11
482.5000000000001
 21
1168.245481707048
 31
0.0
  0
SOLID
  5
CAA
330
C17
100
AcDbEntity
  8
寸法線
 62
     0
100
AcDbTrace
 10
107.5
 20
1169.495481707048
 30
0.0
 11
107.5
 21
1166.995481707048
 31
0.0
 12
100.0
 22
1168.245481707048
 32
0.0
 13
100.0
 23
1168.245481707048
 33
0.0
  0
SOLID
  5
CAB
330
C17
100
AcDbEntity
  8
寸法線
 62
     0
100
AcDbTrace
 10
482.5000000000001
 20
1169.495481707048
 30
0.0
 11
482.5000000000001
 21
1166.995481707048
 31
0.0
 12
490.0
 22
1168.245481707048
 32
0.0
 13
490.0
 23
1168.245481707048
 33
0.0
  0
MTEXT
  5
CAC
330
C17
100
AcDbEntity
  8
寸法線
 62
     0
100
AcDbMText
 10
295.0
 20
1173.870481707048
 30
0.0
 40
7.5
 41
0.0
 71
     5
 72
     1
  1
390
1001
ACAD
1000
MTEXTBEGIN
1070
    73
1070
     1
1070
    44
1040
1.0
1070
    74
1070
     0
1000
MTEXTEND
  0
POINT
  5
CAD
330
C17
100
AcDbEntity
  8
DEFPOINTS
 62
     0
100
AcDbPoint
 10
100.0
 20
890.0000000000007
 30
0.0
  0
POINT
  5
CAE
330
C17
100
AcDbEntity
  8
DEFPOINTS
 62
     0
100
AcDbPoint
 10
490.0
 20
890.0000000000009
 30
0.0
  0
POINT
  5
CAF
330
C17
100
AcDbEntity
  8
DEFPOINTS
 62
     0
100
AcDbPoint
 10
490.0
 20
1168.245481707048
 30
0.0
  0
ENDBLK
  5
C22
330
C17
100
AcDbEntity
  8
0
100
AcDbBlockEnd
  0
BLOCK
  5
C2E
330
C24
100
AcDbEntity
  8
0
100
AcDbBlockBegin
  2
*D71
 70
     1
 10
0.0
 20
0.0
 30
0.0
  3
*D71
  1

  0
LINE
  5
C9E
330
C24
100
AcDbEntity
  8
寸法線
 62
     0
100
AcDbLine
 10
100.0
 20
891.5000000000008
 30
0.0
 11
100.0
 21
1195.995481707049
 31
0.0
  0
LINE
  5
C9F
330
C24
100
AcDbEntity
  8
寸法線
 62
     0
100
AcDbLine
 10
539.0000000000003
 20
917.5000000000009
 30
0.0
 11
539.0000000000003
 21
1195.995481707049
 31
0.0
  0
LINE
  5
CA0
330
C24
100
AcDbEntity
  8
寸法線
 62
     0
100
AcDbLine
 10
107.5
 20
1192.245481707048
 30
0.0
 11
531.5000000000003
 21
1192.245481707048
 31
0.0
  0
SOLID
  5
CA1
330
C24
100
AcDbEntity
  8
寸法線
 62
     0
100
AcDbTrace
 10
107.5
 20
1193.495481707048
 30
0.0
 11
107.5
 21
1190.995481707048
 31
0.0
 12
100.0
 22
1192.245481707048
 32
0.0
 13
100.0
 23
1192.245481707048
 33
0.0
  0
SOLID
  5
CA2
330
C24
100
AcDbEntity
  8
寸法線
 62
     0
100
AcDbTrace
 10
531.5000000000003
 20
1193.495481707048
 30
0.0
 11
531.5000000000003
 21
1190.995481707048
 31
0.0
 12
539.0000000000003
 22
1192.245481707048
 32
0.0
 13
539.0000000000003
 23
1192.245481707048
 33
0.0
  0
MTEXT
  5
CA3
330
C24
100
AcDbEntity
  8
寸法線
 62
     0
100
AcDbMText
 10
319.5000000000001
 20
1197.870481707048
 30
0.0
 40
7.5
 41
0.0
 71
     5
 72
     1
  1
439
1001
ACAD
1000
MTEXTBEGIN
1070
    73
1070
     1
1070
    44
1040
1.0
1070
    74
1070
     0
1000
MTEXTEND
  0
POINT
  5
CA4
330
C24
100
AcDbEntity
  8
DEFPOINTS
 62
     0
100
AcDbPoint
 10
100.0
 20
890.0000000000007
 30
0.0
  0
POINT
  5
CA5
330
C24
100
AcDbEntity
  8
DEFPOINTS
 62
     0
100
AcDbPoint
 10
539.0000000000003
 20
916.0000000000009
 30
0.0
  0
POINT
  5
CA6
330
C24
100
AcDbEntity
  8
DEFPOINTS
 62
     0
100
AcDbPoint
 10
539.0000000000003
 20
1192.245481707048
 30
0.0
  0
ENDBLK
  5
C2F
330
C24
100
AcDbEntity
  8
0
100
AcDbBlockEnd
  0
BLOCK
  5
C3B
330
C31
100
AcDbEntity
  8
0
100
AcDbBlockBegin
  2
*D72
 70
     1
 10
0.0
 20
0.0
 30
0.0
  3
*D72
  1

  0
LINE
  5
CC7
330
C31
100
AcDbEntity
  8
寸法線
 62
     0
100
AcDbLine
 10
236.25
 20
1128.000000000001
 30
0.0
 11
65.45837436458282
 21
1128.000000000001
 31
0.0
  0
LINE
  5
CC8
330
C31
100
AcDbEntity
  8
寸法線
 62
     0
100
AcDbLine
 10
98.50000000000001
 20
890.0000000000007
 30
0.0
 11
65.45837436458275
 21
890.0000000000007
 31
0.0
  0
LINE
  5
CC9
330
C31
100
AcDbEntity
  8
寸法線
 62
     0
100
AcDbLine
 10
69.20837436458281
 20
1120.5
 30
0.0
 11
69.20837436458275
 21
897.5000000000008
 31
0.0
  0
SOLID
  5
CCA
330
C31
100
AcDbEntity
  8
寸法線
 62
     0
100
AcDbTrace
 10
67.95837436458281
 20
1120.5
 30
0.0
 11
70.45837436458281
 21
1120.5
 31
0.0
 12
69.20837436458281
 22
1128.000000000001
 32
0.0
 13
69.20837436458281
 23
1128.000000000001
 33
0.0
  0
SOLID
  5
CCB
330
C31
100
AcDbEntity
  8
寸法線
 62
     0
100
AcDbTrace
 10
67.95837436458275
 20
897.5000000000008
 30
0.0
 11
70.45837436458275
 21
897.5000000000008
 31
0.0
 12
69.20837436458275
 22
890.0000000000007
 32
0.0
 13
69.20837436458275
 23
890.0000000000007
 33
0.0
  0
MTEXT
  5
CCC
330
C31
100
AcDbEntity
  8
寸法線
 62
     0
100
AcDbMText
 10
63.58263617560623
 20
1009.000000000001
 30
0.0
 40
7.5
 41
0.0
 71
     5
 72
     1
  1
238
 11
0.0000000000000001
 21
1.0
 31
0.0
1001
ACAD
1000
MTEXTBEGIN
1070
    73
1070
     1
1070
    44
1040
1.0
1070
    74
1070
     0
1000
MTEXTEND
  0
POINT
  5
CCD
330
C31
100
AcDbEntity
  8
DEFPOINTS
 62
     0
100
AcDbPoint
 10
237.7499999999999
 20
1128.000000000001
 30
0.0
  0
POINT
  5
CCE
330
C31
100
AcDbEntity
  8
DEFPOINTS
 62
     0
100
AcDbPoint
 10
100.0
 20
890.0000000000007
 30
0.0
  0
POINT
  5
CCF
330
C31
100
AcDbEntity
  8
DEFPOINTS
 62
     0
100
AcDbPoint
 10
69.20837436458275
 20
890.0000000000007
 30
0.0
  0
ENDBLK
  5
C3C
330
C31
100
AcDbEntity
  8
0
100
AcDbBlockEnd
  0
BLOCK
  5
C48
330
C3E
100
AcDbEntity
  8
0
100
AcDbBlockBegin
  2
*D73
 70
     1
 10
0.0
 20
0.0
 30
0.0
  3
*D73
  1

  0
LINE
  5
CB5
330
C3E
100
AcDbEntity
  8
寸法線
 62
     0
100
AcDbLine
 10
236.25
 20
1128.000000000001
 30
0.0
 11
41.45837436458282
 21
1128.000000000001
 31
0.0
  0
LINE
  5
CB6
330
C3E
100
AcDbEntity
  8
寸法線
 62
     0
100
AcDbLine
 10
293.5
 20
726.8000000000008
 30
0.0
 11
41.4583743645827
 21
726.8000000000009
 31
0.0
  0
LINE
  5
CB7
330
C3E
100
AcDbEntity
  8
寸法線
 62
     0
100
AcDbLine
 10
45.2083743645828
 20
1120.5
 30
0.0
 11
45.20837436458271
 21
734.3000000000009
 31
0.0
  0
SOLID
  5
CB8
330
C3E
100
AcDbEntity
  8
寸法線
 62
     0
100
AcDbTrace
 10
43.9583743645828
 20
1120.5
 30
0.0
 11
46.4583743645828
 21
1120.5
 31
0.0
 12
45.2083743645828
 22
1128.000000000001
 32
0.0
 13
45.2083743645828
 23
1128.000000000001
 33
0.0
  0
SOLID
  5
CB9
330
C3E
100
AcDbEntity
  8
寸法線
 62
     0
100
AcDbTrace
 10
43.95837436458271
 20
734.3000000000009
 30
0.0
 11
46.45837436458271
 21
734.3000000000009
 31
0.0
 12
45.20837436458271
 22
726.8000000000009
 32
0.0
 13
45.20837436458271
 23
726.8000000000009
 33
0.0
  0
MTEXT
  5
CBA
330
C3E
100
AcDbEntity
  8
寸法線
 62
     0
100
AcDbMText
 10
39.58263617560623
 20
927.4000000000009
 30
0.0
 40
7.5
 41
0.0
 71
     5
 72
     1
  1
401.2
 11
0.0000000000000001
 21
1.0
 31
0.0
1001
ACAD
1000
MTEXTBEGIN
1070
    73
1070
     1
1070
    44
1040
1.0
1070
    74
1070
     0
1000
MTEXTEND
  0
POINT
  5
CBB
330
C3E
100
AcDbEntity
  8
DEFPOINTS
 62
     0
100
AcDbPoint
 10
237.7499999999999
 20
1128.000000000001
 30
0.0
  0
POINT
  5
CBC
330
C3E
100
AcDbEntity
  8
DEFPOINTS
 62
     0
100
AcDbPoint
 10
295.0
 20
726.8000000000008
 30
0.0
  0
POINT
  5
CBD
330
C3E
100
AcDbEntity
  8
DEFPOINTS
 62
     0
100
AcDbPoint
 10
45.20837436458271
 20
726.8000000000009
 30
0.0
  0
ENDBLK
  5
C49
330
C3E
100
AcDbEntity
  8
0
100
AcDbBlockEnd
  0
BLOCK
  5
C5B
330
C4F
100
AcDbEntity
  8
0
100
AcDbBlockBegin
  2
*D74
 70
     1
 10
0.0
 20
0.0
 30
0.0
  3
*D74
  1

  0
LINE
  5
D12
330
C4F
100
AcDbEntity
  8
寸法線
 62
     0
100
AcDbLine
 10
196.7500000000007
 20
224.8260081563574
 30
0.0
 11
174.8537116963449
 21
186.9005243172495
 31
0.0
  0
LINE
  5
D13
330
C4F
100
AcDbEntity
  8
寸法線
 62
     0
100
AcDbLine
 10
393.2500000000013
 20
224.8260081563585
 30
0.0
 11
415.1462883036576
 21
186.9005243172494
 31
0.0
  0
ARC
  5
D14
330
C4F
100
AcDbEntity
  8
寸法線
 62
     0
100
AcDbCircle
 10
295.0000000000013
 20
395.0000000000006
 30
0.0
 40
236.5425766073126
100
AcDbArc
 50
241.8167399489548
 51
298.1832600510451
  0
SOLID
  5
D15
330
C4F
100
AcDbEntity
  8
寸法線
 62
     0
100
AcDbTrace
 10
182.6747764771157
 20
185.4092575215288
 30
0.0
 11
183.8902958056943
 21
187.5938656698822
 31
0.0
 12
176.7287116963449
 22
190.1481195814412
 32
0.0
 13
176.7287116963449
 23
190.1481195814412
 33
0.0
  0
SOLID
  5
D16
330
C4F
100
AcDbEntity
  8
寸法線
 62
     0
100
AcDbTrace
 10
406.1097041943082
 20
187.5938656698822
 30
0.0
 11
407.3252235228868
 21
185.4092575215288
 31
0.0
 12
413.2712883036576
 22
190.1481195814411
 32
0.0
 13
413.2712883036576
 23
190.1481195814411
 33
0.0
  0
MTEXT
  5
D17
330
C4F
100
AcDbEntity
  8
寸法線
 62
     0
100
AcDbMText
 10
295.0000000000013
 20
164.0824233926879
 30
0.0
 40
7.5
 41
0.0
 71
     5
 72
     1
  1
60°
  0
POINT
  5
D18
330
C4F
100
AcDbEntity
  8
DEFPOINTS
 62
     0
100
AcDbPoint
 10
253.9248126315012
 20
162.0510366396349
 30
0.0
  0
POINT
  5
D19
330
C4F
100
AcDbEntity
  8
DEFPOINTS
 62
     0
100
AcDbPoint
 10
197.5000000000007
 20
226.125046262034
 30
0.0
  0
POINT
  5
D1A
330
C4F
100
AcDbEntity
  8
DEFPOINTS
 62
     0
100
AcDbPoint
 10
392.5000000000013
 20
226.1250462620352
 30
0.0
  0
POINT
  5
D1B
330
C4F
100
AcDbEntity
  8
DEFPOINTS
 62
     0
100
AcDbPoint
 10
295.0000000000013
 20
395.0000000000006
 30
0.0
  0
POINT
  5
D1C
330
C4F
100
AcDbEntity
  8
DEFPOINTS
 62
     0
100
AcDbPoint
 10
295.0000000000013
 20
395.0000000000006
 30
0.0
  0
ENDBLK
  5
C5C
330
C4F
100
AcDbEntity
  8
0
100
AcDbBlockEnd
  0
BLOCK
  5
C6C
330
C60
100
AcDbEntity
  8
0
100
AcDbBlockBegin
  2
*D75
 70
     1
 10
0.0
 20
0.0
 30
0.0
  3
*D75
  1

  0
LINE
  5
D1D
330
C60
100
AcDbEntity
  8
寸法線
 62
     0
100
AcDbLine
 10
136.639109203049
 20
236.6391092030481
 30
0.0
 11
125.0874896121825
 21
225.0874896121817
 31
0.0
  0
LINE
  5
D1E
330
C60
100
AcDbEntity
  8
寸法線
 62
     0
100
AcDbLine
 10
196.7500000000007
 20
224.8260081563574
 30
0.0
 11
174.8537116963448
 21
186.9005243172494
 31
0.0
  0
ARC
  5
D1F
330
C60
100
AcDbEntity
  8
寸法線
 62
     0
100
AcDbCircle
 10
295.0000000000012
 20
395.0000000000003
 30
0.0
 40
236.5425766073124
100
AcDbArc
 50
226.8167399489548
 51
238.1832600510451
  0
SOLID
  5
D20
330
C60
100
AcDbEntity
  8
寸法線
 62
     0
100
AcDbTrace
 10
132.2560898249474
 20
221.6227959820637
 30
0.0
 11
133.995609531655
 21
223.4183658609534
 31
0.0
 12
127.739140041632
 22
227.7391400416312
 32
0.0
 13
127.739140041632
 23
227.7391400416312
 33
0.0
  0
SOLID
  5
D21
330
C60
100
AcDbEntity
  8
寸法線
 62
     0
100
AcDbTrace
 10
170.9358708665443
 20
195.0731063956972
 30
0.0
 11
169.6517043770451
 21
192.9281317041804
 31
0.0
 12
176.7287116963448
 22
190.1481195814411
 32
0.0
 13
176.7287116963448
 23
190.1481195814411
 33
0.0
  0
MTEXT
  5
D22
330
C60
100
AcDbEntity
  8
寸法線
 62
     0
100
AcDbMText
 10
154.4262860813028
 20
211.8007692666318
 30
0.0
 40
7.5
 41
0.0
 71
     5
 72
     1
  1
15°
 11
0.7933533402912351
 21
-0.6087614290087208
 31
0.0
  0
POINT
  5
D23
330
C60
100
AcDbEntity
  8
DEFPOINTS
 62
     0
100
AcDbPoint
 10
142.9533625934916
 20
213.7978736289235
 30
0.0
  0
POINT
  5
D24
330
C60
100
AcDbEntity
  8
DEFPOINTS
 62
     0
100
AcDbPoint
 10
452.3002306251703
 20
552.3002306251694
 30
0.0
  0
POINT
  5
D25
330
C60
100
AcDbEntity
  8
DEFPOINTS
 62
     0
100
AcDbPoint
 10
197.5000000000007
 20
226.125046262034
 30
0.0
  0
POINT
  5
D26
330
C60
100
AcDbEntity
  8
DEFPOINTS
 62
     0
100
AcDbPoint
 10
295.0000000000013
 20
395.0000000000006
 30
0.0
  0
POINT
  5
D27
330
C60
100
AcDbEntity
  8
DEFPOINTS
 62
     0
100
AcDbPoint
 10
137.6997693748288
 20
237.6997693748279
 30
0.0
  0
ENDBLK
  5
C6D
330
C60
100
AcDbEntity
  8
0
100
AcDbBlockEnd
  0
BLOCK
  5
C7B
330
C6F
100
AcDbEntity
  8
0
100
AcDbBlockBegin
  2
*D76
 70
     1
 10
0.0
 20
0.0
 30
0.0
  3
*D76
  1

  0
LINE
  5
D28
330
C6F
100
AcDbEntity
  8
寸法線
 62
     0
100
AcDbLine
 10
136.6391092030489
 20
236.6391092030481
 30
0.0
 11
106.1940399225184
 21
206.1940399225176
 31
0.0
  0
LINE
  5
D29
330
C6F
100
AcDbEntity
  8
寸法線
 62
     0
100
AcDbLine
 10
453.3608907969519
 20
236.6391092030499
 30
0.0
 11
483.8059600774839
 21
206.1940399225174
 31
0.0
  0
ARC
  5
D2A
330
C6F
100
AcDbEntity
  8
寸法線
 62
     0
100
AcDbCircle
 10
295.0000000000013
 20
395.0000000000004
 30
0.0
 40
263.2619493984493
100
AcDbArc
 50
226.6323395023211
 51
313.3676604976787
  0
SOLID
  5
D2B
330
C6F
100
AcDbEntity
  8
寸法線
 62
     0
100
AcDbTrace
 10
113.3527918858007
 20
202.7220855505677
 30
0.0
 11
115.0951987655069
 21
204.5148538751296
 31
0.0
 12
108.845690351968
 22
208.8456903519671
 32
0.0
 13
108.845690351968
 23
208.8456903519671
 33
0.0
  0
SOLID
  5
D2C
330
C6F
100
AcDbEntity
  8
寸法線
 62
     0
100
AcDbTrace
 10
474.9048012344955
 20
204.5148538751293
 30
0.0
 11
476.6472081142016
 21
202.7220855505674
 31
0.0
 12
481.1543096480344
 22
208.8456903519669
 32
0.0
 13
481.1543096480344
 23
208.8456903519669
 33
0.0
  0
MTEXT
  5
D2D
330
C6F
100
AcDbEntity
  8
寸法線
 62
     0
100
AcDbMText
 10
295.0000000000013
 20
137.3648631978749
 30
0.0
 40
7.5
 41
0.0
 71
     5
 72
     1
  1
90°
  0
POINT
  5
D2E
330
C6F
100
AcDbEntity
  8
DEFPOINTS
 62
     0
100
AcDbPoint
 10
226.8627936448663
 20
140.7084839968324
 30
0.0
  0
POINT
  5
D2F
330
C6F
100
AcDbEntity
  8
DEFPOINTS
 62
     0
100
AcDbPoint
 10
452.3002306251703
 20
552.3002306251694
 30
0.0
  0
POINT
  5
D30
330
C6F
100
AcDbEntity
  8
DEFPOINTS
 62
     0
100
AcDbPoint
 10
137.6997693748307
 20
552.3002306251712
 30
0.0
  0
POINT
  5
D31
330
C6F
100
AcDbEntity
  8
DEFPOINTS
 62
     0
100
AcDbPoint
 10
452.300230625172
 20
237.6997693748297
 30
0.0
  0
POINT
  5
D32
330
C6F
100
AcDbEntity
  8
DEFPOINTS
 62
     0
100
AcDbPoint
 10
137.6997693748288
 20
237.6997693748279
 30
0.0
  0
ENDBLK
  5
C7C
330
C6F
100
AcDbEntity
  8
0
100
AcDbBlockEnd
  0
ENDSEC
  0
SECTION
  2
ENTITIES
  0
INSERT
  5
26E
330
1F
100
AcDbEntity
  8
ASHADE
 62
     1
100
AcDbBlockReference
  2
AVE_RENDER
 10
0.0
 20
0.0
 30
0.0
1001
AVE_RENDER
1002
{
1070
     7
1000
Pref
1070
    30
1070
    20
1070
     1
1070
     0
1000

1070
    10
1070
     1
1070
    10
1040
1.0
1070
     1
1040
0.3
1040
0.7
1040
0.0
1040
10.0
1010
-1.0
1020
-1.0
1030
-1.0
1040
0.3
1070
    49
1070
     0
1070
     0
1010
1.0
1020
1.0
1030
1.0
1040
45.0
1070
     1
1070
     0
1000
WCS
1040
0.0
1070
     0
1040
10.0
1002
}
  0
INSERT
  5
26F
330
1F
100
AcDbEntity
  8
ASHADE
 62
     3
100
AcDbBlockReference
  2
AVE_RENDER
 10
0.0
 20
0.0
 30
0.0
1001
AVE_RENDER
1002
{
1070
     0
1000
Full Opt
1070
     0
1070
     1
1070
     1
1070
     1
1070
     0
1070
     0
1070
     0
1070
     1
1070
     1
1040
0.0001
1040
0.0001
1002
}
  0
INSERT
  5
270
330
1F
100
AcDbEntity
  8
ASHADE
 62
     4
100
AcDbBlockReference
  2
AVE_RENDER
 10
0.0
 20
0.0
 30
0.0
1001
AVE_RENDER
1002
{
1070
     0
1000
Quick Opt
1070
     0
1070
     1
1070
     1
1070
     1
1070
     0
1070
     0
1070
     1
1002
}
  0
INSERT
  5
271
330
1F
100
AcDbEntity
  8
ASHADE
 62
     5
100
AcDbBlockReference
  2
AVE_RENDER
 10
0.0
 20
0.0
 30
0.0
1001
AVE_RENDER
1002
{
1070
     1
1000
Scanl Opt
1070
     2
1070
     0
1070
     2
1040
2.0
1040
4.0
1070
     0
1070
     1
1070
     0
1040
0.03
1002
}
  0
INSERT
  5
272
330
1F
100
AcDbEntity
  8
ASHADE
 62
     6
100
AcDbBlockReference
  2
AVE_RENDER
 10
0.0
 20
0.0
 30
0.0
1001
AVE_RENDER
1002
{
1070
     2
1000
Raytr Opt
1070
     2
1070
     0
1070
     2
1040
2.0
1040
4.0
1070
     0
1070
     1
1070
     1
1040
0.03
1070
     3
1040
0.03
1002
}
  0
INSERT
  5
273
330
1F
100
AcDbEntity
  8
ASHADE
 62
     7
100
AcDbBlockReference
  2
AVE_RENDER
 10
0.0
 20
0.0
 30
0.0
1001
AVE_RENDER
1002
{
1070
     0
1000
RFile Opt
1070
     1
1070
   640
1070
   480
1070
 10000
1070
     1
1070
     8
1070
     8
1070
     0
1070
     0
1070
     0
1070
     0
1070
     0
1070
     0
1070
     0
1002
}
  0
INSERT
  5
274
330
1F
100
AcDbEntity
  8
ASHADE
 62
     8
100
AcDbBlockReference
  2
AVE_RENDER
 10
0.0
 20
0.0
 30
0.0
1001
AVE_RENDER
1002
{
1070
     0
1000
Fog Opt
1070
     0
1070
     0
1040
0.0
1040
1.0
1040
0.0
1040
1.0
1010
0.5
1020
0.5
1030
0.5
1002
}
  0
INSERT
  5
275
330
1F
100
AcDbEntity
  8
ASHADE
 62
     9
100
AcDbBlockReference
  2
AVE_RENDER
 10
0.0
 20
0.0
 30
0.0
1001
AVE_RENDER
1002
{
1070
     0
1000
BG Opt
1070
     0
1070
     1
1010
1.0
1020
1.0
1030
0.99
1010
1.0
1020
0.0
1030
0.0
1010
0.0
1020
1.0
1030
0.0
1010
0.0
1020
0.0
1030
1.0
1040
0.5
1040
0.33
1040
0.0
1000

1070
     1
1000

1070
     1
1070
     1
1040
1.0
1040
1.0
1040
0.0
1040
0.0
1070
     0
1002
}
  0
INSERT
  5
27C
330
1F
100
AcDbEntity
  8
ASHADE
 62
     1
100
AcDbBlockReference
  2
AVE_GLOBAL
 10
0.0
 20
0.0
 30
0.0
1001
AVE_MATERIAL
1002
{
1000
*GLOBAL*
1000
2
1000
Global finish.
1002
{
1002
}
1002
{
1070
    63
1002
{
1002
{
1010
-1.0
1020
-1.0
1030
-1.0
1002
}
1040
0.1000000014901161
1000

1040
0.0
1002
{
1002
}
1040
0.0
1002
{
1002
}
1040
0.0
1002
}
1002
{
1002
{
1010
-1.0
1020
-1.0
1030
-1.0
1002
}
1040
0.6999999880790711
1000

1040
0.0
1002
{
1002
}
1040
0.0
1002
{
1002
}
1040
0.0
1002
}
1002
{
1002
{
1010
-1.0
1020
-1.0
1030
-1.0
1002
}
1040
0.2000000029802322
1000

1040
0.0
1002
{
1002
}
1040
0.0
1002
{
1002
}
1040
0.0
1002
}
1002
{
1070
     0
1002
{
1070
     1
1002
{
1040
1.0
1040
1.0
1000

1040
0.0
1002
{
1002
}
1040
0.0
1002
{
1002
}
1040
0.0
1002
}
1002
}
1040
1.0
1040
0.0
1040
0.0
1002
}
1002
{
1040
1.0
1040
1.0
1000

1040
0.0
1002
{
1002
}
1040
0.0
1002
{
1002
}
1040
0.0
1002
}
1002
{
1040
0.5
1040
1.0
1000

1040
0.0
1002
{
1002
}
1040
0.0
1002
{
1002
}
1040
0.0
1002
}
1002
{
1070
     0
1040
0.0
1002
{
1002
}
1040
1.0
1002
{
1002
}
1040
0.0
1002
}
1002
{
1040
0.0
1002
{
1002
{
1010
0.0
1020
0.0
1030
0.0
1002
}
1040
1.0
1000

1040
0.0
1002
{
1002
}
1040
0.0
1002
{
1002
}
1040
0.0
1002
}
1002
}
1002
{
1002
{
1070
     1
1002
{
1040
0.0
1040
1.0
1000

1040
0.0
1002
{
1002
}
1040
0.0
1002
{
1002
}
1040
0.0
1002
}
1002
}
1040
0.0
1002
{
1002
}
1010
1.0
1020
0.0
1030
0.0
1010
0.0
1020
1.0
1030
0.0
1010
0.0
1020
0.0
1030
1.0
1070
     0
1002
}
1002
{
1002
{
1040
1.0
1040
1.0
1002
{
1070
     1
1002
{
1040
1.0
1040
1.0
1000

1040
0.0
1002
{
1002
}
1040
0.0
1002
{
1002
}
1040
0.0
1002
}
1002
}
1002
}
1070
     0
1040
0.0
1002
{
1002
}
1002
}
1002
{
1002
}
1002
}
1002
{
1071
        3
1070
     3
1070
     0
1002
{
1070
     2
1070
     0
1070
     0
1040
0.0
1002
}
1070
     0
1070
     2
1002
{
1002
}
1002
}
1002
{
1040
8030.0
1040
190.3000030517578
1040
0.3050000071525574
1040
228.0
1040
545.0
1040
14.0
1040
17.39999961853027
1040
0.4560000002384186
1002
}
1002
}
  0
CIRCLE
  5
545
330
1F
100
AcDbEntity
  8
外形線
100
AcDbCircle
 10
295.0
 20
395.0
 30
0.0
 40
195.0
  0
CIRCLE
  5
548
330
1F
100
AcDbEntity
  8
外形線
100
AcDbCircle
 10
295.0
 20
395.0
 30
0.0
 40
190.5
  0
LINE
  5
54C
330
1F
100
AcDbEntity
  8
外形線
100
AcDbLine
 10
100.0
 20
890.0000000000007
 30
0.0
 11
490.0
 21
890.0000000000009
 31
0.0
  0
LINE
  5
54D
330
1F
100
AcDbEntity
  8
外形線
100
AcDbLine
 10
490.0
 20
890.0000000000009
 30
0.0
 11
490.0
 21
870.0000000000009
 31
0.0
  0
LINE
  5
54E
330
1F
100
AcDbEntity
  8
外形線
100
AcDbLine
 10
491.0
 20
840.0000000000009
 30
0.0
 11
100.0
 21
840.0000000000009
 31
0.0
  0
LINE
  5
579
330
1F
100
AcDbEntity
  8
外形線
100
AcDbLine
 10
287.2499999999989
 20
840.0000000000009
 30
0.0
 11
287.2499999999989
 21
790.0000000000009
 31
0.0
  0
LINE
  5
57A
330
1F
100
AcDbEntity
  8
外形線
100
AcDbLine
 10
287.2499999999989
 20
790.0000000000009
 30
0.0
 11
177.7499999999989
 21
790.0000000000009
 31
0.0
  0
LINE
  5
57C
330
1F
100
AcDbEntity
  8
外形線
100
AcDbLine
 10
177.7499999999989
 20
790.0000000000009
 30
0.0
 11
115.25
 21
790.0000000000009
 31
0.0
  0
LINE
  5
57D
330
1F
100
AcDbEntity
  8
外形線
100
AcDbLine
 10
115.25
 20
790.0000000000009
 30
0.0
 11
115.25
 21
840.0000000000009
 31
0.0
  0
LINE
  5
57E
330
1F
100
AcDbEntity
  8
外形線
100
AcDbLine
 10
302.750000000001
 20
840.0000000000009
 30
0.0
 11
302.750000000001
 21
790.0000000000009
 31
0.0
  0
LINE
  5
57F
330
1F
100
AcDbEntity
  8
外形線
100
AcDbLine
 10
302.750000000001
 20
790.0000000000009
 30
0.0
 11
412.250000000001
 21
790.0000000000009
 31
0.0
  0
LINE
  5
580
330
1F
100
AcDbEntity
  8
外形線
100
AcDbLine
 10
412.250000000001
 20
790.0000000000009
 30
0.0
 11
412.250000000001
 21
840.0000000000009
 31
0.0
  0
LINE
  5
581
330
1F
100
AcDbEntity
  8
外形線
100
AcDbLine
 10
412.250000000001
 20
790.0000000000009
 30
0.0
 11
474.75
 21
790.0000000000009
 31
0.0
  0
LINE
  5
582
330
1F
100
AcDbEntity
  8
外形線
100
AcDbLine
 10
474.75
 20
790.0000000000009
 30
0.0
 11
474.75
 21
840.0000000000009
 31
0.0
  0
LINE
  5
585
330
1F
100
AcDbEntity
  8
隠線
100
AcDbLine
 10
365.2499999999999
 20
840.0000000000009
 30
0.0
 11
365.2499999999999
 21
790.0000000000009
 31
0.0
  0
LINE
  5
5CF
330
1F
100
AcDbEntity
  8
センタ_線
100
AcDbLine
 10
295.0
 20
1138.000000000001
 30
0.0
 11
295.0
 21
779.0865910962354
 31
0.0
  0
LINE
  5
5E4
330
1F
100
AcDbEntity
  8
外形線
100
AcDbLine
 10
491.0
 20
335.0
 30
0.0
 11
491.0
 21
455.0
 31
0.0
  0
LINE
  5
5E7
330
1F
100
AcDbEntity
  8
外形線
100
AcDbLine
 10
490.0
 20
454.0
 30
0.0
 11
490.0
 21
336.0
 31
0.0
  0
LWPOLYLINE
  5
5EC
330
1F
100
AcDbEntity
  8
外形線
100
AcDbPolyline
 90
        4
 70
     1
 43
0.0
 10
480.5397531527947
 20
870.0000000000009
 10
491.0
 20
870.0000000000009
 10
491.0
 20
840.0000000000009
 10
480.5397531527947
 20
840.0000000000009
  0
LINE
  5
626
330
1F
100
AcDbEntity
  8
外形線
100
AcDbLine
 10
480.5397531527948
 20
455.0
 30
0.0
 11
491.0
 21
455.0
 31
0.0
  0
LINE
  5
627
330
1F
100
AcDbEntity
  8
外形線
100
AcDbLine
 10
480.8601624878231
 20
454.0
 30
0.0
 11
490.0
 21
454.0
 31
0.0
  0
LINE
  5
629
330
1F
100
AcDbEntity
  8
外形線
100
AcDbLine
 10
480.8601624878231
 20
336.0
 30
0.0
 11
490.0
 21
336.0
 31
0.0
  0
LINE
  5
62A
330
1F
100
AcDbEntity
  8
外形線
100
AcDbLine
 10
480.5397531527948
 20
335.0
 30
0.0
 11
491.0000000000001
 21
335.0
 31
0.0
  0
LINE
  5
636
330
1F
100
AcDbEntity
  8
隠線
100
AcDbLine
 10
490.0
 20
449.65
 30
0.0
 11
491.0
 21
449.65
 31
0.0
  0
LINE
  5
637
330
1F
100
AcDbEntity
  8
隠線
100
AcDbLine
 10
490.0
 20
446.35
 30
0.0
 11
491.0
 21
446.35
 31
0.0
  0
LINE
  5
63B
330
1F
100
AcDbEntity
  8
隠線
100
AcDbLine
 10
490.0
 20
343.6499999999999
 30
0.0
 11
491.0000000000001
 21
343.6499999999999
 31
0.0
  0
LINE
  5
63C
330
1F
100
AcDbEntity
  8
隠線
100
AcDbLine
 10
489.9999999999999
 20
340.35
 30
0.0
 11
491.0
 21
340.35
 31
0.0
  0
ELLIPSE
  5
653
330
1F
100
AcDbEntity
  8
外形線
100
AcDbEllipse
 10
432.8858223313767
 20
865.0000000000009
 30
0.0
 11
0.0
 21
4.5
 31
0.0
210
0.0
220
0.0
230
1.0
 40
0.698091206733832
 41
0.0
 42
6.283185307179586
  0
ELLIPSE
  5
654
330
1F
100
AcDbEntity
  8
外形線
100
AcDbEllipse
 10
429.7444119010745
 20
865.0000000000009
 30
0.0
 11
0.0
 21
4.5
 31
0.0
210
0.0
220
0.0
230
1.0
 40
0.698091206733832
 41
3.665191429188091
 42
5.759586531581287
  0
DIMENSION
  5
6AD
330
1F
100
AcDbEntity
  8
寸法線
100
AcDbDimension
  2
*D25
 10
69.20837436458274
 20
890.0000000000009
 30
0.0
 11
69.2083743645826
 21
869.2128685560556
 31
0.0
 70
   160
  3
MY_DIM1
100
AcDbAlignedDimension
 13
100.0
 23
840.0000000000009
 33
0.0
 14
100.0
 24
890.0000000000009
 34
0.0
 50
90.00000000000003
100
AcDbRotatedDimension
  0
MTEXT
  5
6CB
330
1F
100
AcDbEntity
  8
寸法線
100
AcDbMText
 10
370.722329549972
 20
810.3798204579929
 30
0.0
 40
7.5
 41
31.829
 71
     1
 72
     5
  1
t1.0
1001
ACAD
1000
MTEXTBEGIN
1070
    73
1070
     1
1070
    44
1040
1.0
1070
    74
1070
     0
1000
MTEXTEND
  0
DIMENSION
  5
6DA
330
1F
100
AcDbEntity
  8
寸法線
100
AcDbDimension
  2
*D28
 10
295.0000000000006
 20
394.9999999999998
 30
0.0
 11
359.8376891480856
 21
460.5319678090719
 31
0.0
 70
   164
  3
MY_DIM1$4
100
AcDbRadialDimension
 15
382.916392187384
 25
483.8577964207646
 35
0.0
 40
0.0
1001
ACAD
1000
DSTYLE
1002
{
1070
   288
1070
     1
1002
}
  0
ARC
  5
6E5
330
1F
100
AcDbEntity
  8
センタ_線
100
AcDbCircle
 10
295.0
 20
394.9999999999999
 30
0.0
 40
124.9999999999999
100
AcDbArc
 50
0.0
 51
120.0000000000004
  0
LINE
  5
790
330
1F
100
AcDbEntity
  8
外形線
100
AcDbLine
 10
537.0
 20
331.4999999999999
 30
0.0
 11
489.0
 21
331.4999999999999
 31
0.0
  0
LINE
  5
791
330
1F
100
AcDbEntity
  8
外形線
100
AcDbLine
 10
489.0
 20
332.5
 30
0.0
 11
536.0
 21
332.5
 31
0.0
  0
LINE
  5
792
330
1F
100
AcDbEntity
  8
外形線
100
AcDbLine
 10
489.0
 20
458.4999999999999
 30
0.0
 11
537.0
 21
458.4999999999999
 31
0.0
  0
LINE
  5
793
330
1F
100
AcDbEntity
  8
外形線
100
AcDbLine
 10
536.0
 20
457.5
 30
0.0
 11
489.0
 21
457.5
 31
0.0
  0
LWPOLYLINE
  5
794
330
1F
100
AcDbEntity
  8
外形線
100
AcDbPolyline
 90
        4
 70
     0
 43
0.0
 10
491.0
 20
457.5
 10
536.0
 20
457.5
 10
536.0
 20
332.5
 10
491.0
 20
332.5
  0
LINE
  5
795
330
1F
100
AcDbEntity
  8
外形線
100
AcDbLine
 10
491.0
 20
457.5
 30
0.0
 11
491.0
 21
332.5
 31
0.0
  0
LINE
  5
796
330
1F
100
AcDbEntity
  8
隠線
100
AcDbLine
 10
493.2999999999999
 20
457.5
 30
0.0
 11
493.2999999999999
 21
332.5
 31
0.0
  0
LINE
  5
797
330
1F
100
AcDbEntity
  8
外形線
100
AcDbLine
 10
489.0
 20
457.5
 30
0.0
 11
489.0
 21
458.4999999999999
 31
0.0
  0
LINE
  5
798
330
1F
100
AcDbEntity
  8
センタ_線
100
AcDbLine
 10
493.2999999999999
 20
436.0
 30
0.0
 11
491.0
 21
436.0
 31
0.0
  0
LINE
  5
799
330
1F
100
AcDbEntity
  8
センタ_線
100
AcDbLine
 10
493.2999999999999
 20
354.0
 30
0.0
 11
491.0
 21
354.0
 31
0.0
  0
LINE
  5
79A
330
1F
100
AcDbEntity
  8
外形線
100
AcDbLine
 10
489.0
 20
331.4999999999999
 30
0.0
 11
489.0
 21
332.5
 31
0.0
  0
INSERT
  5
79B
330
1F
100
AcDbEntity
  8
外形線
100
AcDbBlockReference
  2
CRSM0400
 10
537.0
 20
352.4999965514332
 30
0.0
 50
180.0
  0
LINE
  5
79C
330
1F
100
AcDbEntity
  8
外形線
100
AcDbLine
 10
537.0
 20
458.4999999999999
 30
0.0
 11
537.0
 21
331.4999999999999
 31
0.0
  0
LINE
  5
79D
330
1F
100
AcDbEntity
  8
外形線
100
AcDbLine
 10
536.0
 20
332.5
 30
0.0
 11
536.0
 21
457.5
 31
0.0
  0
LINE
  5
79E
330
1F
100
AcDbEntity
  8
隠線
100
AcDbLine
 10
533.7
 20
332.5
 30
0.0
 11
533.7
 21
457.5
 31
0.0
  0
CIRCLE
  5
79F
330
1F
100
AcDbEntity
  8
外形線
100
AcDbCircle
 10
511.0
 20
357.5
 30
0.0
 40
9.5
  0
INSERT
  5
7A0
330
1F
100
AcDbEntity
  8
外形線
100
AcDbBlockReference
  2
CRSM0400
 10
537.0
 20
437.5000034479851
 30
0.0
 50
180.0
  0
LWPOLYLINE
  5
7A2
330
1F
100
AcDbEntity
  8
外形線
100
AcDbPolyline
 90
        4
 70
     1
 43
0.0
 10
538.9999999999998
 20
826.0000000000008
 10
539.0000000000003
 20
916.0000000000009
 10
491.0000000000003
 20
916.0000000000009
 10
490.9999999999999
 20
826.0000000000008
  0
INSERT
  5
7A4
330
1F
100
AcDbEntity
  8
外形線
100
AcDbBlockReference
  2
CRSM0400
 10
538.9999999999998
 20
833.0000007267953
 30
0.0
 41
-1.0
 50
359.9999999999997
  0
INSERT
  5
7A7
330
1F
100
AcDbEntity
  8
外形線
100
AcDbBlockReference
  2
CRSM0400
 10
539.0000000000001
 20
908.9999992737878
 30
0.0
 41
-1.0
 50
359.9999999999997
  0
LINE
  5
823
330
1F
100
AcDbEntity
  8
0
  6
CENTER
 62
     4
100
AcDbLine
 10
295.0
 20
721.7108190000008
 30
0.0
 11
295.0
 21
850.0000000000008
 31
0.0
  0
LINE
  5
824
330
1F
100
AcDbEntity
  8
0
  6
CONTINUOUS
 62
     4
100
AcDbLine
 10
302.750000000001
 20
791.8000000000007
 30
0.0
 11
287.2499999999989
 21
791.8000000000009
 31
0.0
  0
LINE
  5
825
330
1F
100
AcDbEntity
  8
0
  6
CONTINUOUS
 62
     4
100
AcDbLine
 10
324.5
 20
728.3000000000008
 30
0.0
 11
265.5
 21
728.3000000000008
 31
0.0
  0
LINE
  5
826
330
1F
100
AcDbEntity
  8
0
  6
CONTINUOUS
 62
     4
100
AcDbLine
 10
325.0
 20
733.8000000000008
 30
0.0
 11
265.0
 21
733.8000000000008
 31
0.0
  0
LINE
  5
827
330
1F
100
AcDbEntity
  8
0
  6
CONTINUOUS
 62
     4
100
AcDbLine
 10
325.2999999999999
 20
785.3000000000008
 30
0.0
 11
264.7000009999999
 21
785.3000000000008
 31
0.0
  0
LINE
  5
828
330
1F
100
AcDbEntity
  8
0
  6
CONTINUOUS
 62
     4
100
AcDbLine
 10
323.0
 20
726.8000000000008
 30
0.0
 11
267.0
 21
726.8000000000008
 31
0.0
  0
LINE
  5
829
330
1F
100
AcDbEntity
  8
0
  6
CONTINUOUS
 62
     4
100
AcDbLine
 10
265.0
 20
733.8000000000008
 30
0.0
 11
265.0
 21
785.3000000000008
 31
0.0
  0
LINE
  5
82A
330
1F
100
AcDbEntity
  8
0
  6
CONTINUOUS
 62
     4
100
AcDbLine
 10
265.5
 20
728.3000000000008
 30
0.0
 11
265.5
 21
733.8000000000008
 31
0.0
  0
LINE
  5
82B
330
1F
100
AcDbEntity
  8
0
  6
CONTINUOUS
 62
     4
100
AcDbLine
 10
265.5
 20
728.3000000000008
 30
0.0
 11
267.0
 21
726.8000000000008
 31
0.0
  0
LINE
  5
841
330
1F
100
AcDbEntity
  8
0
  6
CONTINUOUS
 62
     4
100
AcDbLine
 10
264.7000009999999
 20
785.3000000000008
 30
0.0
 11
264.7000009999999
 21
790.0000000000009
 31
0.0
  0
LINE
  5
843
330
1F
100
AcDbEntity
  8
0
  6
CONTINUOUS
 62
     4
100
AcDbLine
 10
266.2512629999998
 20
784.6000000000008
 30
0.0
 11
274.2512629999998
 21
784.6000000000008
 31
0.0
  0
LINE
  5
844
330
1F
100
AcDbEntity
  8
0
  6
CONTINUOUS
 62
     4
100
AcDbLine
 10
266.2512629999998
 20
784.6000000000008
 30
0.0
 11
266.2512629999998
 21
785.3000000000008
 31
0.0
  0
LINE
  5
845
330
1F
100
AcDbEntity
  8
0
  6
CONTINUOUS
 62
     4
100
AcDbLine
 10
274.2512629999998
 20
784.6000000000008
 30
0.0
 11
274.2512629999998
 21
785.3000000000008
 31
0.0
  0
LINE
  5
846
330
1F
100
AcDbEntity
  8
0
  6
CONTINUOUS
 62
     4
100
AcDbLine
 10
325.0
 20
733.8000000000008
 30
0.0
 11
325.0
 21
785.3000000000008
 31
0.0
  0
LINE
  5
847
330
1F
100
AcDbEntity
  8
0
  6
CONTINUOUS
 62
     4
100
AcDbLine
 10
323.0
 20
726.8000000000008
 30
0.0
 11
324.5
 21
728.3000000000008
 31
0.0
  0
LINE
  5
848
330
1F
100
AcDbEntity
  8
0
  6
CONTINUOUS
 62
     4
100
AcDbLine
 10
324.5
 20
728.3000000000008
 30
0.0
 11
324.5
 21
733.8000000000008
 31
0.0
  0
LINE
  5
849
330
1F
100
AcDbEntity
  8
0
  6
CONTINUOUS
 62
     4
100
AcDbLine
 10
323.748738
 20
784.6000000000008
 30
0.0
 11
315.748738
 21
784.6000000000008
 31
0.0
  0
LINE
  5
84A
330
1F
100
AcDbEntity
  8
0
  6
CONTINUOUS
 62
     4
100
AcDbLine
 10
315.748738
 20
784.6000000000008
 30
0.0
 11
315.748738
 21
785.3000000000008
 31
0.0
  0
LINE
  5
84B
330
1F
100
AcDbEntity
  8
0
  6
CONTINUOUS
 62
     4
100
AcDbLine
 10
323.748738
 20
784.6000000000008
 30
0.0
 11
323.748738
 21
785.3000000000008
 31
0.0
  0
LINE
  5
84C
330
1F
100
AcDbEntity
  8
0
  6
CONTINUOUS
 62
     4
100
AcDbLine
 10
325.2999999999999
 20
785.3000000000008
 30
0.0
 11
325.2999999999999
 21
790.0000000000009
 31
0.0
  0
CIRCLE
  5
84D
330
1F
100
AcDbEntity
  8
0
  6
CONTINUOUS
 62
     4
100
AcDbCircle
 10
285.0000000000012
 20
395.0000000000004
 30
0.0
 40
27.0
  0
LINE
  5
84F
330
1F
100
AcDbEntity
  8
0
  6
CONTINUOUS
 62
     4
100
AcDbLine
 10
315.3000000000012
 20
420.0000000000001
 30
0.0
 11
315.3000000000012
 21
370.0000000000004
 31
0.0
  0
LINE
  5
850
330
1F
100
AcDbEntity
  8
0
  6
CONTINUOUS
 62
     4
100
AcDbLine
 10
254.7000010000011
 20
420.0000000000004
 30
0.0
 11
254.7000010000011
 21
370.0000000000006
 31
0.0
  0
LINE
  5
858
330
1F
100
AcDbEntity
  8
0
  6
CONTINUOUS
 62
     4
100
AcDbLine
 10
310.0000000000012
 20
425.3000000000004
 30
0.0
 11
260.0000010000011
 21
425.3000000000006
 31
0.0
  0
ARC
  5
85D
330
1F
100
AcDbEntity
  8
0
  6
CONTINUOUS
 62
     4
100
AcDbCircle
 10
260.0000010000011
 20
420.0000000000001
 30
0.0
 40
5.299999999999999
100
AcDbArc
 50
89.99999999999998
 51
180.0
  0
ARC
  5
867
330
1F
100
AcDbEntity
  8
0
  6
CONTINUOUS
 62
     4
100
AcDbCircle
 10
310.0000000000012
 20
420.0000000000001
 30
0.0
 40
5.299999999999999
100
AcDbArc
 50
0.0
 51
89.99999999999998
  0
LINE
  5
868
330
1F
100
AcDbEntity
  8
0
  6
CONTINUOUS
 62
     4
100
AcDbLine
 10
260.0000010000011
 20
364.7000000000004
 30
0.0
 11
290.0592270000012
 21
364.7000000000002
 31
0.0
  0
ARC
  5
881
330
1F
100
AcDbEntity
  8
0
  6
CONTINUOUS
 62
     4
100
AcDbCircle
 10
260.0000010000008
 20
370.0000000000004
 30
0.0
 40
5.299999999999999
100
AcDbArc
 50
180.0
 51
270.0
  0
ARC
  5
888
330
1F
100
AcDbEntity
  8
0
  6
CONTINUOUS
 62
     4
100
AcDbCircle
 10
310.000000000001
 20
370.0000000000004
 30
0.0
 40
5.299999999999999
100
AcDbArc
 50
270.0
 51
0.0
  0
LINE
  5
889
330
1F
100
AcDbEntity
  8
0
  6
CONTINUOUS
 62
     4
100
AcDbLine
 10
290.0592270000012
 20
364.7000000000002
 30
0.0
 11
310.0000000000012
 21
364.7000000000002
 31
0.0
  0
CIRCLE
  5
918
330
1F
100
AcDbEntity
  8
外形線
100
AcDbCircle
 10
295.0000000000012
 20
395.0000000000004
 30
0.0
 40
55.89999999999999
  0
CIRCLE
  5
919
330
1F
100
AcDbEntity
  8
外形線
100
AcDbCircle
 10
295.0000000000012
 20
395.0000000000004
 30
0.0
 40
57.5
  0
CIRCLE
  5
920
330
1F
100
AcDbEntity
  8
外形線
100
AcDbCircle
 10
250.8327044069947
 20
420.5000000000002
 30
0.0
 40
4.25
  0
CIRCLE
  5
923
330
1F
100
AcDbEntity
  8
外形線
100
AcDbCircle
 10
295.0000000000012
 20
344.0000000000003
 30
0.0
 40
4.25
  0
CIRCLE
  5
92A
330
1F
100
AcDbEntity
  8
外形線
100
AcDbCircle
 10
295.0000000000012
 20
446.0000000000004
 30
0.0
 40
4.25
  0
CIRCLE
  5
92D
330
1F
100
AcDbEntity
  8
外形線
100
AcDbCircle
 10
339.1672955930076
 20
369.5000000000006
 30
0.0
 40
4.25
  0
CIRCLE
  5
92F
330
1F
100
AcDbEntity
  8
外形線
100
AcDbCircle
 10
339.1672955930076
 20
420.5000000000002
 30
0.0
 40
4.25
  0
LWPOLYLINE
  5
93D
330
1F
100
AcDbEntity
  8
外形線
100
AcDbPolyline
 90
        4
 70
     1
 43
0.0
 10
334.7500341022979
 20
375.0000034482761
 10
317.2500341022979
 20
375.0000034482761
 10
317.2500341022979
 20
411.000003448276
 10
334.7500341022979
 20
411.000003448276
  0
CIRCLE
  5
93E
330
1F
100
AcDbEntity
  8
外形線
100
AcDbCircle
 10
326.0000341022979
 20
369.0000034482761
 30
0.0
 40
5.0
  0
INSERT
  5
93F
330
1F
100
AcDbEntity
  8
外形線
100
AcDbBlockReference
  2
CRFN04
 10
326.0000341022979
 20
369.0000034482761
 30
0.0
 41
-1.0
 50
180.0
  0
LINE
  5
940
330
1F
100
AcDbEntity
  8
外形線
100
AcDbLine
 10
331.0000341022979
 20
369.0000034482761
 30
0.0
 11
331.0000341022979
 21
375.0000034482761
 31
0.0
  0
LINE
  5
941
330
1F
100
AcDbEntity
  8
外形線
100
AcDbLine
 10
321.0000341022979
 20
369.0000034482761
 30
0.0
 11
321.0000341022979
 21
375.0000034482761
 31
0.0
  0
CIRCLE
  5
942
330
1F
100
AcDbEntity
  8
外形線
100
AcDbCircle
 10
326.0000341022979
 20
417.0000034482761
 30
0.0
 40
5.0
  0
INSERT
  5
943
330
1F
100
AcDbEntity
  8
外形線
100
AcDbBlockReference
  2
CRFN04
 10
326.0000341022979
 20
417.0000034482761
 30
0.0
 41
-1.0
 50
180.0
  0
LINE
  5
944
330
1F
100
AcDbEntity
  8
外形線
100
AcDbLine
 10
331.0000341022979
 20
411.000003448276
 30
0.0
 11
331.0000341022979
 21
417.0000034482761
 31
0.0
  0
LINE
  5
945
330
1F
100
AcDbEntity
  8
外形線
100
AcDbLine
 10
321.0000341022979
 20
411.000003448276
 30
0.0
 11
321.0000341022979
 21
417.0000034482761
 31
0.0
  0
INSERT
  5
946
330
1F
100
AcDbEntity
  8
外形線
100
AcDbBlockReference
  2
CRFN04
 10
309.7487380000012
 20
370.2512630000002
 30
0.0
  0
INSERT
  5
947
330
1F
100
AcDbEntity
  8
外形線
100
AcDbBlockReference
  2
CRFN04
 10
260.2512630000011
 20
370.2512630000002
 30
0.0
  0
INSERT
  5
948
330
1F
100
AcDbEntity
  8
外形線
100
AcDbBlockReference
  2
CRFN04
 10
260.2512630000013
 20
419.7487370000003
 30
0.0
  0
INSERT
  5
949
330
1F
100
AcDbEntity
  8
外形線
100
AcDbBlockReference
  2
CRFN04
 10
309.7487380000014
 20
419.7487370000003
 30
0.0
  0
LEADER
  5
95C
330
1F
100
AcDbEntity
  8
寸法線
100
AcDbLeader
  3
MY_DIM1
 73
     0
 74
     0
 75
     1
 40
7.503625192647683
 41
58.79803512901439
 76
     3
 10
514.6317680892703
 20
348.721602620879
 30
0.0
 10
547.2672109558549
 20
269.8380177981418
 30
0.0
 10
554.7672109558549
 20
269.8380177981418
 30
0.0
340
95D
1001
ACAD
1000
DSTYLE
1002
{
1070
     5
1000

1002
}
  0
MTEXT
  5
95D
102
{ACAD_REACTORS
330
95C
102
}
330
1F
100
AcDbEntity
  8
寸法線
100
AcDbMText
 10
556.6422109558549
 20
271.7130177981418
 30
0.0
 40
7.5
 41
0.0
 71
     7
 72
     1
  1
%%c19グロメット
1001
ACAD
1000
MTEXTBEGIN
1070
    73
1070
     1
1070
    44
1040
1.0
1070
    74
1070
     0
1000
MTEXTEND
  0
LINE
  5
95E
330
1F
100
AcDbEntity
  8
外形線
100
AcDbLine
 10
100.0
 20
890.0000000000009
 30
0.0
 11
100.0
 21
840.0000000000009
 31
0.0
  0
LINE
  5
968
330
1F
100
AcDbEntity
  8
外形線
100
AcDbLine
 10
287.2499999999989
 20
830.0000000000009
 30
0.0
 11
302.750000000001
 21
830.0000000000007
 31
0.0
  0
LWPOLYLINE
  5
969
330
1F
100
AcDbEntity
  8
外形線
100
AcDbPolyline
 90
        2
 70
     0
 43
0.0
 10
302.750000000001
 20
826.8000000000009
 10
287.2499999999989
 20
826.8000000000009
  0
LINE
  5
96D
330
1F
100
AcDbEntity
  8
隠線
100
AcDbLine
 10
224.75
 20
840.0000000000009
 30
0.0
 11
224.75
 21
790.0000000000009
 31
0.0
  0
LINE
  5
96E
330
1F
100
AcDbEntity
  8
外形線
100
AcDbLine
 10
177.7499999999989
 20
790.0000000000009
 30
0.0
 11
177.7499999999989
 21
840.0000000000009
 31
0.0
  0
LINE
  5
9D6
330
1F
100
AcDbEntity
  8
外形線
100
AcDbLine
 10
237.7499999999999
 20
1128.000000000001
 30
0.0
 11
352.2499999999999
 21
1128.000000000001
 31
0.0
  0
LINE
  5
9DC
330
1F
100
AcDbEntity
  8
隠線
100
AcDbLine
 10
238.75
 20
1128.000000000001
 30
0.0
 11
238.75
 21
1105.525266649374
 31
0.0
  0
LINE
  5
9DD
330
1F
100
AcDbEntity
  8
外形線
100
AcDbLine
 10
237.5403476366546
 20
1105.525266649374
 30
0.0
 11
237.7499999999999
 21
1128.000000000001
 31
0.0
  0
LINE
  5
9E6
330
1F
100
AcDbEntity
  8
隠線
100
AcDbLine
 10
351.25
 20
1105.525266649374
 30
0.0
 11
351.25
 21
1128.000000000001
 31
0.0
  0
LINE
  5
9E7
330
1F
100
AcDbEntity
  8
外形線
100
AcDbLine
 10
352.2499999999999
 20
1128.000000000001
 30
0.0
 11
352.4596523633454
 21
1105.525266649374
 31
0.0
  0
LINE
  5
A6F
330
1F
100
AcDbEntity
  8
外形線
100
AcDbLine
 10
215.9999999999998
 20
1105.525266649374
 30
0.0
 11
373.9999999999998
 21
1105.525266649374
 31
0.0
  0
LINE
  5
A71
330
1F
100
AcDbEntity
  8
外形線
100
AcDbLine
 10
110.5902625994333
 20
890.0000000000009
 30
0.0
 11
215.9999999999998
 21
1105.525266649374
 31
0.0
  0
LINE
  5
A78
330
1F
100
AcDbEntity
  8
外形線
100
AcDbLine
 10
373.9999999999998
 20
1105.525266649374
 30
0.0
 11
479.4097374005664
 21
890.0000000000009
 31
0.0
  0
LINE
  5
AFB
330
1F
100
AcDbEntity
  8
外形線
100
AcDbLine
 10
434.6535759997226
 20
540.3104302488038
 30
0.0
 11
448.6144820906174
 21
554.2713363396984
 31
0.0
  0
LINE
  5
AFC
330
1F
100
AcDbEntity
  8
外形線
100
AcDbLine
 10
454.2713363399041
 20
548.6144820904118
 30
0.0
 11
440.3104302490094
 21
534.653575999517
 31
0.0
  0
LINE
  5
AFD
330
1F
100
AcDbEntity
  8
外形細線
100
AcDbLine
 10
435.1485507465749
 20
539.8154555019514
 30
0.0
 11
449.9667782474816
 21
554.6336830028581
 31
0.0
  0
LINE
  5
AFE
330
1F
100
AcDbEntity
  8
外形細線
100
AcDbLine
 10
454.6336830030637
 20
549.966778247276
 30
0.0
 11
439.815455502157
 21
535.1485507463693
 31
0.0
  0
LINE
  5
B06
330
1F
100
AcDbEntity
  8
外形線
100
AcDbLine
 10
448.6144820906174
 20
554.2713363396984
 30
0.0
 11
449.9667782474816
 21
554.6336830028581
 31
0.0
  0
LINE
  5
B07
330
1F
100
AcDbEntity
  8
外形線
100
AcDbLine
 10
454.6336830030637
 20
549.966778247276
 30
0.0
 11
454.2713363399041
 21
548.6144820904118
 31
0.0
  0
LINE
  5
B08
330
1F
100
AcDbEntity
  8
外形細線
100
AcDbLine
 10
448.6144820906174
 20
554.2713363396984
 30
0.0
 11
454.2713363399041
 21
548.6144820904118
 31
0.0
  0
LINE
  5
B09
330
1F
100
AcDbEntity
  8
外形線
100
AcDbLine
 10
449.9667782474816
 20
554.6336830028581
 30
0.0
 11
454.6336830030637
 21
549.966778247276
 31
0.0
  0
INSERT
  5
B4A
330
1F
100
AcDbEntity
  8
外形線
100
AcDbBlockReference
  2
N13S08
 10
432.8858223313767
 20
532.8858223313768
 30
0.0
 50
225.0
  0
LINE
  5
B4B
330
1F
100
AcDbEntity
  8
外形線
100
AcDbLine
 10
141.3855179095864
 20
554.2713363399034
 30
0.0
 11
155.3464240004812
 21
540.3104302490088
 31
0.0
  0
LINE
  5
B4C
330
1F
100
AcDbEntity
  8
外形線
100
AcDbLine
 10
149.6895697511944
 20
534.653575999722
 30
0.0
 11
135.7286636602998
 21
548.6144820906166
 31
0.0
  0
LINE
  5
B4D
330
1F
100
AcDbEntity
  8
外形細線
100
AcDbLine
 10
150.1845444980468
 20
535.1485507465743
 30
0.0
 11
135.3663169971401
 21
549.9667782474809
 31
0.0
  0
LINE
  5
B4E
330
1F
100
AcDbEntity
  8
外形細線
100
AcDbLine
 10
140.0332217527222
 20
554.633683003063
 30
0.0
 11
154.8514492536289
 21
539.8154555021562
 31
0.0
  0
INSERT
  5
B4F
330
1F
100
AcDbEntity
  8
外形線
100
AcDbBlockReference
  2
N13S08
 10
157.1141776686214
 20
532.885822331376
 30
0.0
 50
315.0
  0
LINE
  5
B50
330
1F
100
AcDbEntity
  8
外形線
100
AcDbLine
 10
135.3663169971401
 20
549.9667782474809
 30
0.0
 11
140.0332217527222
 21
554.633683003063
 31
0.0
  0
LINE
  5
B51
330
1F
100
AcDbEntity
  8
外形細線
100
AcDbLine
 10
135.7286636602998
 20
548.6144820906166
 30
0.0
 11
141.3855179095864
 21
554.2713363399034
 31
0.0
  0
LINE
  5
B52
330
1F
100
AcDbEntity
  8
外形線
100
AcDbLine
 10
135.7286636602998
 20
548.6144820906166
 30
0.0
 11
135.3663169971401
 21
549.9667782474809
 31
0.0
  0
LINE
  5
B53
330
1F
100
AcDbEntity
  8
外形線
100
AcDbLine
 10
140.0332217527222
 20
554.633683003063
 30
0.0
 11
141.3855179095864
 21
554.2713363399034
 31
0.0
  0
LINE
  5
B54
330
1F
100
AcDbEntity
  8
外形線
100
AcDbLine
 10
135.7286636600948
 20
241.3855179095857
 30
0.0
 11
149.6895697509895
 21
255.3464240004805
 31
0.0
  0
LINE
  5
B55
330
1F
100
AcDbEntity
  8
外形線
100
AcDbLine
 10
155.3464240002763
 20
249.6895697511937
 30
0.0
 11
141.3855179093815
 21
235.728663660299
 31
0.0
  0
LINE
  5
B56
330
1F
100
AcDbEntity
  8
外形細線
100
AcDbLine
 10
154.851449253424
 20
250.1845444980461
 30
0.0
 11
140.0332217525173
 21
235.3663169971393
 31
0.0
  0
LINE
  5
B57
330
1F
100
AcDbEntity
  8
外形細線
100
AcDbLine
 10
135.3663169969352
 20
240.0332217527215
 30
0.0
 11
150.1845444978419
 21
254.8514492536281
 31
0.0
  0
INSERT
  5
B58
330
1F
100
AcDbEntity
  8
外形線
100
AcDbBlockReference
  2
N13S08
 10
157.1141776686222
 20
257.1141776686206
 30
0.0
 50
44.99999999999992
  0
LINE
  5
B59
330
1F
100
AcDbEntity
  8
外形線
100
AcDbLine
 10
140.0332217525173
 20
235.3663169971393
 30
0.0
 11
135.3663169969352
 21
240.0332217527215
 31
0.0
  0
LINE
  5
B5A
330
1F
100
AcDbEntity
  8
外形細線
100
AcDbLine
 10
141.3855179093815
 20
235.728663660299
 30
0.0
 11
135.7286636600948
 21
241.3855179095857
 31
0.0
  0
LINE
  5
B5B
330
1F
100
AcDbEntity
  8
外形線
100
AcDbLine
 10
141.3855179093815
 20
235.728663660299
 30
0.0
 11
140.0332217525173
 21
235.3663169971393
 31
0.0
  0
LINE
  5
B5C
330
1F
100
AcDbEntity
  8
外形線
100
AcDbLine
 10
135.3663169969352
 20
240.0332217527215
 30
0.0
 11
135.7286636600948
 21
241.3855179095857
 31
0.0
  0
LINE
  5
B5D
330
1F
100
AcDbEntity
  8
外形線
100
AcDbLine
 10
448.6144820904124
 20
235.7286636600937
 30
0.0
 11
434.6535759995177
 21
249.6895697509886
 31
0.0
  0
LINE
  5
B5E
330
1F
100
AcDbEntity
  8
外形線
100
AcDbLine
 10
440.3104302488044
 20
255.3464240002753
 30
0.0
 11
454.2713363396991
 21
241.3855179093805
 31
0.0
  0
LINE
  5
B5F
330
1F
100
AcDbEntity
  8
外形細線
100
AcDbLine
 10
439.815455501952
 20
254.8514492534229
 30
0.0
 11
454.6336830028588
 21
240.0332217525163
 31
0.0
  0
LINE
  5
B60
330
1F
100
AcDbEntity
  8
外形細線
100
AcDbLine
 10
449.9667782472767
 20
235.3663169969342
 30
0.0
 11
435.1485507463699
 21
250.1845444978408
 31
0.0
  0
INSERT
  5
B61
330
1F
100
AcDbEntity
  8
外形線
100
AcDbBlockReference
  2
N13S08
 10
432.8858223313775
 20
257.1141776686212
 30
0.0
 50
134.9999999999999
  0
LINE
  5
B62
330
1F
100
AcDbEntity
  8
外形線
100
AcDbLine
 10
454.6336830028588
 20
240.0332217525163
 30
0.0
 11
449.9667782472767
 21
235.3663169969342
 31
0.0
  0
LINE
  5
B63
330
1F
100
AcDbEntity
  8
外形細線
100
AcDbLine
 10
454.2713363396991
 20
241.3855179093805
 30
0.0
 11
448.6144820904124
 21
235.7286636600937
 31
0.0
  0
LINE
  5
B64
330
1F
100
AcDbEntity
  8
外形線
100
AcDbLine
 10
454.2713363396991
 20
241.3855179093805
 30
0.0
 11
454.6336830028588
 21
240.0332217525163
 31
0.0
  0
LINE
  5
B65
330
1F
100
AcDbEntity
  8
外形線
100
AcDbLine
 10
449.9667782472767
 20
235.3663169969342
 30
0.0
 11
448.6144820904124
 21
235.7286636600937
 31
0.0
  0
LINE
  5
B66
330
1F
100
AcDbEntity
  8
外形線
100
AcDbLine
 10
452.3002306251697
 20
552.3002306251698
 30
0.0
 11
432.8858223313767
 21
532.8858223313767
 31
0.0
  0
ELLIPSE
  5
B72
330
1F
100
AcDbEntity
  8
外形線
100
AcDbEllipse
 10
157.1141776686232
 20
865.0000000000009
 30
0.0
 11
0.0
 21
4.5
 31
0.0
210
0.0
220
0.0
230
-1.0
 40
0.698091206733832
 41
0.0
 42
6.283185307179586
  0
ELLIPSE
  5
B73
330
1F
100
AcDbEntity
  8
外形線
100
AcDbEllipse
 10
160.2555880989254
 20
865.0000000000009
 30
0.0
 11
0.0
 21
4.5
 31
0.0
210
0.0
220
0.0
230
-1.0
 40
0.698091206733832
 41
3.665191429188091
 42
5.759586531581287
  0
DIMENSION
  5
B95
330
1F
100
AcDbEntity
  8
寸法線
100
AcDbDimension
  2
*D67
 10
351.25
 20
1142.655806065771
 30
0.0
 11
295.0
 21
1148.281544254748
 31
0.0
 70
    32
  1
内径<>
  3
MY_DIM1
100
AcDbAlignedDimension
 13
238.75
 23
1128.000000000001
 33
0.0
 14
351.25
 24
1128.000000000001
 34
0.0
100
AcDbRotatedDimension
  0
CIRCLE
  5
BB2
330
1F
100
AcDbEntity
  8
外形線
100
AcDbCircle
 10
357.500000000001
 20
503.2531754730541
 30
0.0
 40
54.75
  0
CIRCLE
  5
BB3
330
1F
100
AcDbEntity
  8
外形線
100
AcDbCircle
 10
357.500000000001
 20
503.2531754730541
 30
0.0
 40
53.75
  0
CIRCLE
  5
BB4
330
1F
100
AcDbEntity
  8
外形線
100
AcDbCircle
 10
232.500000000002
 20
503.2531754730545
 30
0.0
 40
53.75
  0
CIRCLE
  5
BB5
330
1F
100
AcDbEntity
  8
外形線
100
AcDbCircle
 10
232.500000000002
 20
503.2531754730545
 30
0.0
 40
54.75
  0
CIRCLE
  5
BB6
330
1F
100
AcDbEntity
  8
外形線
100
AcDbCircle
 10
170.0000000000024
 20
395.0000000000008
 30
0.0
 40
53.75
  0
CIRCLE
  5
BB7
330
1F
100
AcDbEntity
  8
外形線
100
AcDbCircle
 10
170.0000000000024
 20
395.0000000000008
 30
0.0
 40
54.75
  0
CIRCLE
  5
BB8
330
1F
100
AcDbEntity
  8
外形線
100
AcDbCircle
 10
232.5000000000014
 20
286.7468245269465
 30
0.0
 40
53.75
  0
CIRCLE
  5
BB9
330
1F
100
AcDbEntity
  8
外形線
100
AcDbCircle
 10
232.5000000000014
 20
286.7468245269465
 30
0.0
 40
54.75
  0
CIRCLE
  5
BBA
330
1F
100
AcDbEntity
  8
外形線
100
AcDbCircle
 10
357.5000000000004
 20
286.7468245269462
 30
0.0
 40
53.75
  0
CIRCLE
  5
BBB
330
1F
100
AcDbEntity
  8
外形線
100
AcDbCircle
 10
357.5000000000004
 20
286.7468245269462
 30
0.0
 40
54.75
  0
CIRCLE
  5
BBC
330
1F
100
AcDbEntity
  8
外形線
100
AcDbCircle
 10
420.0000000000001
 20
395.0
 30
0.0
 40
53.75
  0
CIRCLE
  5
BBD
330
1F
100
AcDbEntity
  8
外形線
100
AcDbCircle
 10
420.0000000000001
 20
395.0
 30
0.0
 40
54.75
  0
DIMENSION
  5
BBE
330
1F
100
AcDbEntity
  8
寸法線
100
AcDbDimension
  2
*D68
 10
474.3007452744781
 20
401.9993973052171
 30
0.0
 11
398.206185871918
 21
392.1907648208614
 31
0.0
 70
   163
  1
外径<>
  3
MY_DIM1$3
100
AcDbDiametricDimension
 15
365.6992547255224
 25
388.0006026947829
 35
0.0
 40
0.0
1001
ACAD
1000
DSTYLE
1002
{
1070
   288
1070
     1
1002
}
  0
LINE
  5
BF1
330
1F
100
AcDbEntity
  8
隠線
100
AcDbLine
 10
104.4999999999999
 20
890.0000000000007
 30
0.0
 11
104.4999999999999
 21
840.0000000000009
 31
0.0
  0
LINE
  5
BF2
330
1F
100
AcDbEntity
  8
隠線
100
AcDbLine
 10
104.4999999999999
 20
840.0000000000009
 30
0.0
 11
104.4999999999999
 21
850.0000000000008
 31
0.0
  0
LINE
  5
BF3
330
1F
100
AcDbEntity
  8
隠線
100
AcDbLine
 10
104.4999999999999
 20
850.0000000000008
 30
0.0
 11
295.0
 21
850.0000000000008
 31
0.0
  0
LINE
  5
BF4
330
1F
100
AcDbEntity
  8
隠線
100
AcDbLine
 10
295.0
 20
852.3000000000008
 30
0.0
 11
104.4999999999999
 21
852.3000000000008
 31
0.0
  0
LINE
  5
BF5
330
1F
100
AcDbEntity
  8
隠線
100
AcDbLine
 10
115.25
 20
840.0000000000009
 30
0.0
 11
115.25
 21
850.0000000000008
 31
0.0
  0
LINE
  5
BF6
330
1F
100
AcDbEntity
  8
隠線
100
AcDbLine
 10
224.75
 20
850.0000000000008
 30
0.0
 11
224.75
 21
840.0000000000009
 31
0.0
  0
DIMENSION
  5
C09
330
1F
100
AcDbEntity
  8
寸法線
100
AcDbDimension
  2
*D69
 10
82.52855962307604
 20
790.0000000000009
 30
0.0
 11
76.90355962307592
 21
820.0000000000009
 31
0.0
 70
    32
  3
MY_DIM1
100
AcDbAlignedDimension
 13
104.4999999999999
 23
850.0000000000008
 33
0.0
 14
115.25
 24
790.0000000000009
 34
0.0
 50
90.0
100
AcDbRotatedDimension
  0
DIMENSION
  5
C16
330
1F
100
AcDbEntity
  8
寸法線
100
AcDbDimension
  2
*D70
 10
490.0
 20
1168.245481707048
 30
0.0
 11
295.0
 21
1173.870481707048
 31
0.0
 70
    32
  3
MY_DIM1
100
AcDbAlignedDimension
 13
100.0
 23
890.0000000000007
 33
0.0
 14
490.0
 24
890.0000000000009
 34
0.0
100
AcDbRotatedDimension
  0
DIMENSION
  5
C23
330
1F
100
AcDbEntity
  8
寸法線
100
AcDbDimension
  2
*D71
 10
539.0000000000003
 20
1192.245481707048
 30
0.0
 11
319.5000000000001
 21
1197.870481707048
 31
0.0
 70
    32
  3
MY_DIM1
100
AcDbAlignedDimension
 13
100.0
 23
890.0000000000007
 33
0.0
 14
539.0000000000003
 24
916.0000000000009
 34
0.0
100
AcDbRotatedDimension
  0
DIMENSION
  5
C30
330
1F
100
AcDbEntity
  8
寸法線
100
AcDbDimension
  2
*D72
 10
69.20837436458275
 20
890.0000000000007
 30
0.0
 11
63.58263617560623
 21
1009.000000000001
 31
0.0
 70
    32
  3
MY_DIM1
100
AcDbAlignedDimension
 13
237.7499999999999
 23
1128.000000000001
 33
0.0
 14
100.0
 24
890.0000000000007
 34
0.0
 50
90.0
100
AcDbRotatedDimension
  0
DIMENSION
  5
C3D
330
1F
100
AcDbEntity
  8
寸法線
100
AcDbDimension
  2
*D73
 10
45.20837436458271
 20
726.8000000000009
 30
0.0
 11
39.58263617560623
 21
927.4000000000009
 31
0.0
 70
    32
  3
MY_DIM1
100
AcDbAlignedDimension
 13
237.7499999999999
 23
1128.000000000001
 33
0.0
 14
295.0
 24
726.8000000000008
 34
0.0
 50
90.0
100
AcDbRotatedDimension
  0
LEADER
  5
C4A
330
1F
100
AcDbEntity
  8
寸法線
100
AcDbLeader
  3
MY_DIM1
 73
     0
 74
     0
 75
     1
 40
7.5
 41
35.625
 76
     3
 10
511.6170458301894
 20
860.6804272391091
 30
0.0
 10
532.0805094182424
 20
793.1616274570242
 30
0.0
 10
539.5805094182423
 20
793.1616274570242
 30
0.0
340
C4B
1001
ACAD
1000
DSTYLE
1002
{
1070
     5
1000

1002
}
  0
MTEXT
  5
C4B
102
{ACAD_REACTORS
330
C4A
102
}
330
1F
100
AcDbEntity
  8
寸法線
100
AcDbMText
 10
541.4555094182424
 20
795.0366274570242
 30
0.0
 40
7.5
 41
0.0
 71
     7
 72
     1
  1
端子BOX
1001
ACAD
1000
MTEXTBEGIN
1070
    73
1070
     1
1070
    44
1040
1.0
1070
    74
1070
     0
1000
MTEXTEND
  0
LINE
  5
C4C
330
1F
100
AcDbEntity
  8
センタ_線
100
AcDbLine
 10
197.5000000000007
 20
226.125046262034
 30
0.0
 11
295.0000000000013
 21
395.0000000000006
 31
0.0
  0
LINE
  5
C4D
330
1F
100
AcDbEntity
  8
センタ_線
100
AcDbLine
 10
392.5000000000013
 20
226.1250462620352
 30
0.0
 11
295.0000000000013
 21
395.0000000000006
 31
0.0
  0
DIMENSION
  5
C4E
330
1F
100
AcDbEntity
  8
寸法線
100
AcDbDimension
  2
*D74
 10
295.0000000000013
 20
395.0000000000006
 30
0.0
 11
295.0000000000013
 21
164.0824233926879
 31
0.0
 70
    34
  3
MY_DIM1
100
AcDb2LineAngularDimension
 13
392.5000000000013
 23
226.1250462620352
 33
0.0
 14
295.0000000000013
 24
395.0000000000006
 34
0.0
 15
197.5000000000007
 25
226.125046262034
 35
0.0
 16
253.9248126315012
 26
162.0510366396349
 36
0.0
1001
ACAD
1000
DSTYLE
1002
{
1070
   271
1070
     0
1002
}
  0
LINE
  5
C5D
330
1F
100
AcDbEntity
  8
センタ_線
100
AcDbLine
 10
295.0000000000013
 20
395.0000000000004
 30
0.0
 11
137.6997693748288
 21
237.6997693748279
 31
0.0
  0
LINE
  5
C5E
330
1F
100
AcDbEntity
  8
センタ_線
100
AcDbLine
 10
295.0000000000014
 20
395.0000000000004
 30
0.0
 11
452.300230625172
 21
237.6997693748297
 31
0.0
  0
DIMENSION
  5
C5F
330
1F
100
AcDbEntity
  8
寸法線
100
AcDbDimension
  2
*D75
 10
137.6997693748288
 20
237.6997693748279
 30
0.0
 11
154.4262860813028
 21
211.8007692666318
 31
0.0
 70
    34
  3
MY_DIM1
100
AcDb2LineAngularDimension
 13
197.5000000000007
 23
226.125046262034
 33
0.0
 14
295.0000000000013
 24
395.0000000000006
 34
0.0
 15
452.3002306251703
 25
552.3002306251694
 35
0.0
 16
142.9533625934916
 26
213.7978736289235
 36
0.0
1001
ACAD
1000
DSTYLE
1002
{
1070
   271
1070
     0
1002
}
  0
DIMENSION
  5
C6E
330
1F
100
AcDbEntity
  8
寸法線
100
AcDbDimension
  2
*D76
 10
137.6997693748288
 20
237.6997693748279
 30
0.0
 11
295.0000000000013
 21
137.3648631978749
 31
0.0
 70
    34
  3
MY_DIM1
100
AcDb2LineAngularDimension
 13
137.6997693748307
 23
552.3002306251712
 33
0.0
 14
452.300230625172
 24
237.6997693748297
 34
0.0
 15
452.3002306251703
 25
552.3002306251694
 35
0.0
 16
226.8627936448663
 26
140.7084839968324
 36
0.0
1001
ACAD
1000
DSTYLE
1002
{
1070
   271
1070
     0
1002
}
  0
TEXT
  5
CEA
330
1F
100
AcDbEntity
  8
太実線
100
AcDbText
 10
220.2183822596034
 20
65.34163582073961
 30
0.0
 40
15.0
  1
KR6-110
100
AcDbText
  0
VIEWPORT
  5
74E
330
526
100
AcDbEntity
 67
     1
  8
0
100
AcDbViewport
 10
570.3569908142092
 20
816.3983192443849
 30
0.0
 40
3265.114543354833
 41
1777.214245117188
 68
     2
 69
     1
1001
ACAD
1000
MVIEW
1002
{
1070
    16
1010
0.0
1020
0.0
1030
0.0
1010
0.0
1020
0.0
1030
1.0
1040
0.0
1040
1777.214245117188
1040
570.3569908142092
1040
816.3983192443849
1040
50.0
1040
0.0
1040
0.0
1070
     0
1070
   100
1070
     1
1070
     1
1070
     0
1070
     0
1070
     0
1070
     0
1040
0.0
1040
0.0
1040
0.0
1040
10.0
1040
10.0
1040
10.0
1040
10.0
1070
     0
1002
{
1002
}
1002
}
  0
VIEWPORT
  5
750
330
526
100
AcDbEntity
 67
     1
  8
0
100
AcDbViewport
 10
561.7555275614872
 20
817.0173684438118
 30
0.0
 40
1097.546404827134
 41
1586.910803448704
 68
     1
 69
     2
1001
ACAD
1000
MVIEW
1002
{
1070
    16
1010
0.0
1020
0.0
1030
0.0
1010
0.0
1020
0.0
1030
1.0
1040
0.0
1040
1416.514906949852
1040
263.3211876897557
1040
645.35891204194
1040
50.0
1040
0.0
1040
0.0
1070
     0
1070
   100
1070
     1
1070
     3
1070
     1
1070
     0
1070
     0
1070
     0
1040
0.0
1040
0.0
1040
0.0
1040
1.0
1040
1.0
1040
10.0
1040
10.0
1070
     0
1002
{
1002
}
1002
}
  0
ENDSEC
  0
SECTION
  2
OBJECTS
  0
DICTIONARY
  5
C
330
0
100
AcDbDictionary
  3
ACAD_GROUP
350
D
  3
ACAD_LAYOUT
350
1A
  3
ACAD_MLINESTYLE
350
17
  3
ACAD_PLOTSETTINGS
350
19
  3
ACAD_PLOTSTYLENAME
350
E
  3
ACDBHEADERROUNDTRIPXREC
350
CEE
  3
ACDBVARIABLEDICTIONARY
350
958
  3
DWGPROPS
350
289
  0
DICTIONARY
  5
D0E
330
1F
100
AcDbDictionary
280
     1
  3
ACAD_LAYOUTSELFREF
360
D0F
  0
DICTIONARY
  5
D10
330
526
100
AcDbDictionary
280
     1
  3
ACAD_LAYOUTSELFREF
360
D11
  0
DICTIONARY
  5
D
102
{ACAD_REACTORS
330
C
102
}
330
C
100
AcDbDictionary
  0
DICTIONARY
  5
1A
102
{ACAD_REACTORS
330
C
102
}
330
C
100
AcDbDictionary
  0
DICTIONARY
  5
17
102
{ACAD_REACTORS
330
C
102
}
330
C
100
AcDbDictionary
  3
STANDARD
350
18
  0
DICTIONARY
  5
19
102
{ACAD_REACTORS
330
C
102
}
330
C
100
AcDbDictionary
  0
ACDBDICTIONARYWDFLT
  5
E
102
{ACAD_REACTORS
330
C
102
}
330
C
100
AcDbDictionary
281
     1
  3
Normal
350
F
100
AcDbDictionaryWithDefault
340
F
  0
DICTIONARY
  5
CEE
102
{ACAD_REACTORS
330
C
102
}
330
C
100
AcDbDictionary
  3
CEPSNTYPE
350
CF8
  3
FINGERPRINTGUID
350
CF9
  3
HYPERLINKBASE
350
CF1
  3
INSUNITS
350
CF7
  3
LAYOUTDICT
350
CF3
  3
LWETCUNION
350
CF6
  3
PLOTSETDICT
350
CF4
  3
PLOTSTYLNAMDICT
350
CF5
  3
PSVPSCALE
350
CFB
  3
PUCSBASE
350
CFE
  3
PUCSORGBACK
350
D04
  3
PUCSORGBOTTOM
350
D00
  3
PUCSORGFRONT
350
D03
  3
PUCSORGLEFT
350
D01
  3
PUCSORGRIGHT
350
D02
  3
PUCSORGTOP
350
CFF
  3
PUCSORTHOREF
350
CFC
  3
PUCSORTHOVIEW
350
CFD
  3
STYLESHEET
350
CF2
  3
TSTACKALIGN
350
CEF
  3
TSTACKSIZE
350
CF0
  3
UCSBASE
350
D07
  3
UCSORGBACK
350
D0D
  3
UCSORGBOTTOM
350
D09
  3
UCSORGFRONT
350
D0C
  3
UCSORGLEFT
350
D0A
  3
UCSORGRIGHT
350
D0B
  3
UCSORGTOP
350
D08
  3
UCSORTHOREF
350
D05
  3
UCSORTHOVIEW
350
D06
  3
VERSIONGUID
350
CFA
  0
DICTIONARY
  5
958
102
{ACAD_REACTORS
330
C
102
}
330
C
100
AcDbDictionary
  3
DIMASSOC
350
959
  0
XRECORD
  5
289
102
{ACAD_REACTORS
330
C
102
}
330
C
100
AcDbXrecord
  1
DWGPROPS COOKIE
  2

  3

  4

  6

  7

  8
既定
  9

300
=
301
=
302
=
303
=
304
=
305
=
306
=
307
=
308
=
309
=
 40
0.0871034722222223
 41
2451924.63946493
 42
2451928.413254514
  1

 90
        0
  0
XRECORD
  5
D0F
102
{ACAD_REACTORS
330
D0E
102
}
330
D0E
100
AcDbXrecord
340
1F
  0
XRECORD
  5
D11
102
{ACAD_REACTORS
330
D10
102
}
330
D10
100
AcDbXrecord
340
526
  0
MLINESTYLE
  5
18
102
{ACAD_REACTORS
330
17
102
}
330
17
100
AcDbMlineStyle
  2
STANDARD
 70
     0
  3

 62
   256
 51
90.0
 52
90.0
 71
     2
 49
0.5
 62
   256
  6
BYLAYER
 49
-0.5
 62
   256
  6
BYLAYER
  0
ACDBPLACEHOLDER
  5
F
102
{ACAD_REACTORS
330
E
102
}
330
E
100
AcDbPlaceHolder
280
     0
  0
XRECORD
  5
CF8
102
{ACAD_REACTORS
330
CEE
102
}
330
CEE
100
AcDbXrecord
 90
        0
  0
XRECORD
  5
CF9
102
{ACAD_REACTORS
330
CEE
102
}
330
CEE
100
AcDbXrecord
  1
{FDEAD578-A652-11D2-9A35-0060089B3A3F}
  0
XRECORD
  5
CF1
102
{ACAD_REACTORS
330
CEE
102
}
330
CEE
100
AcDbXrecord
  1

  0
XRECORD
  5
CF7
102
{ACAD_REACTORS
330
CEE
102
}
330
CEE
100
AcDbXrecord
 90
        4
  0
XRECORD
  5
CF3
102
{ACAD_REACTORS
330
CEE
102
}
330
CEE
100
AcDbXrecord
340
1A
  0
XRECORD
  5
CF6
102
{ACAD_REACTORS
330
CEE
102
}
330
CEE
100
AcDbXrecord
 90
    10781
  0
XRECORD
  5
CF4
102
{ACAD_REACTORS
330
CEE
102
}
330
CEE
100
AcDbXrecord
340
19
  0
XRECORD
  5
CF5
102
{ACAD_REACTORS
330
CEE
102
}
330
CEE
100
AcDbXrecord
340
E
  0
XRECORD
  5
CFB
102
{ACAD_REACTORS
330
CEE
102
}
330
CEE
100
AcDbXrecord
 40
0.0
  0
XRECORD
  5
CFE
102
{ACAD_REACTORS
330
CEE
102
}
330
CEE
100
AcDbXrecord
340
0
  0
XRECORD
  5
D04
102
{ACAD_REACTORS
330
CEE
102
}
330
CEE
100
AcDbXrecord
 10
0.0
 20
0.0
 30
0.0
  0
XRECORD
  5
D00
102
{ACAD_REACTORS
330
CEE
102
}
330
CEE
100
AcDbXrecord
 10
0.0
 20
0.0
 30
0.0
  0
XRECORD
  5
D03
102
{ACAD_REACTORS
330
CEE
102
}
330
CEE
100
AcDbXrecord
 10
0.0
 20
0.0
 30
0.0
  0
XRECORD
  5
D01
102
{ACAD_REACTORS
330
CEE
102
}
330
CEE
100
AcDbXrecord
 10
0.0
 20
0.0
 30
0.0
  0
XRECORD
  5
D02
102
{ACAD_REACTORS
330
CEE
102
}
330
CEE
100
AcDbXrecord
 10
0.0
 20
0.0
 30
0.0
  0
XRECORD
  5
CFF
102
{ACAD_REACTORS
330
CEE
102
}
330
CEE
100
AcDbXrecord
 10
0.0
 20
0.0
 30
0.0
  0
XRECORD
  5
CFC
102
{ACAD_REACTORS
330
CEE
102
}
330
CEE
100
AcDbXrecord
340
0
  0
XRECORD
  5
CFD
102
{ACAD_REACTORS
330
CEE
102
}
330
CEE
100
AcDbXrecord
 70
     0
  0
XRECORD
  5
CF2
102
{ACAD_REACTORS
330
CEE
102
}
330
CEE
100
AcDbXrecord
  1

  0
XRECORD
  5
CEF
102
{ACAD_REACTORS
330
CEE
102
}
330
CEE
100
AcDbXrecord
 90
        1
  0
XRECORD
  5
CF0
102
{ACAD_REACTORS
330
CEE
102
}
330
CEE
100
AcDbXrecord
 90
       70
  0
XRECORD
  5
D07
102
{ACAD_REACTORS
330
CEE
102
}
330
CEE
100
AcDbXrecord
340
0
  0
XRECORD
  5
D0D
102
{ACAD_REACTORS
330
CEE
102
}
330
CEE
100
AcDbXrecord
 10
0.0
 20
0.0
 30
0.0
  0
XRECORD
  5
D09
102
{ACAD_REACTORS
330
CEE
102
}
330
CEE
100
AcDbXrecord
 10
0.0
 20
0.0
 30
0.0
  0
XRECORD
  5
D0C
102
{ACAD_REACTORS
330
CEE
102
}
330
CEE
100
AcDbXrecord
 10
0.0
 20
0.0
 30
0.0
  0
XRECORD
  5
D0A
102
{ACAD_REACTORS
330
CEE
102
}
330
CEE
100
AcDbXrecord
 10
0.0
 20
0.0
 30
0.0
  0
XRECORD
  5
D0B
102
{ACAD_REACTORS
330
CEE
102
}
330
CEE
100
AcDbXrecord
 10
0.0
 20
0.0
 30
0.0
  0
XRECORD
  5
D08
102
{ACAD_REACTORS
330
CEE
102
}
330
CEE
100
AcDbXrecord
 10
0.0
 20
0.0
 30
0.0
  0
XRECORD
  5
D05
102
{ACAD_REACTORS
330
CEE
102
}
330
CEE
100
AcDbXrecord
340
0
  0
XRECORD
  5
D06
102
{ACAD_REACTORS
330
CEE
102
}
330
CEE
100
AcDbXrecord
 70
     0
  0
XRECORD
  5
CFA
102
{ACAD_REACTORS
330
CEE
102
}
330
CEE
100
AcDbXrecord
  1
{1F312C57-06C5-46A3-8DDE-D2187890A6E0}
  0
DICTIONARYVAR
  5
959
102
{ACAD_REACTORS
330
958
102
}
330
958
100
DictionaryVariables
280
     0
  1
1
  0
ENDSEC
  0
EOF
